Loading...
Error

Неразлучные / Les inseparables (Тьерри Редлер) [2001 г., драма, DVDRip] AVO

Статистика раздачи
Размер:  853 MB   |    Зарегистрирован:  1 год 3 месяца   |    Скачан:  3 раза

Полного источника не было: 1 год

Сидов:  0  |  0 KB/s  ]   Личеров:  0  |  0 KB/s  ]

* - сиды/пиры с внешних источников

   
 
Автор Сообщение

makkol Пол:Муж

11-Авг-2015 12:50

Неразлучные / Les inséparables


Год выпуска: 2001
Жанр: драма
Страна: Франция , Бельгия
Режиссер: Тьерри Редлер
В ролях: Ромейн Редлер, Люк Бернар, Тьерри Редлер, Люк Бернар, Орельен Вик, Жан-Ив Готье, Ален Фиглаж, Джим Редлер
Сюжет фильма:
Эрик - 12-летний мальчик, который живет в реабилитационном центре в ожидании приемной семьи. У него есть лучший друг Петя, который старше Эрика, он очень мечтает быть цирковым артистом. Пьер и Коринна супружеская пара которые уже удочерили девочку из центра Мари и хотят усыновить Эрика, но семейный доктор против быстрого усыновления и боится скрытой депрессии. Но все же Эрика берут на выходные, где он встречается с Мари. В это-же время Петра обвиняют в преступлении которые совершили два других подростка из центра…

Продолжение фильма Путешествие к маяку (1999)

  • Мировая премьера: 14 февраля 2001


Качество видео: DVDRip

Продолжительность: 01:39:23
Формат: AVI
Видео: XviD, 624x368 (1.70:1), 25.000 fps, 998 kbps
Аудио: русский, авторский одноголосый закадровый (Владимир Штейн), AC3 2.0, 48 kHz, 192 kbps

Код:

General
Complete name : Les.Inseparabls.avi
Format : AVI
Format/Info : Audio Video Interleave
File size : 853 MiB
Duration : 1h 39mn
Overall bit rate : 1 200 Kbps

Video #0
ID : 0
Format : MPEG-4 Visual
Format profile : AdvancedSimple@L5
Format settings, BVOP : Yes
Format settings, QPel : No
Format settings, GMC : No warppoints
Format settings, Matrix : Default (H.263)
Codec ID : XVID
Codec ID/Hint : XviD
Duration : 1h 39mn
Bit rate : 998 Kbps
Width : 624 pixels
Height : 368 pixels
Display aspect ratio : 1.696
Frame rate : 25.000 fps
Resolution : 24 bits
Colorimetry : 4:2:0
Scan type : Progressive
Bits/(Pixel*Frame) : 0.174
Stream size : 710 MiB (83%)
Writing library : XviD 64

Audio #1
ID : 1
Format : AC-3
Format/Info : Audio Coding 3
Codec ID : 2000
Duration : 1h 39mn
Bit rate mode : Constant
Bit rate : 192 Kbps
Channel(s) : 2 channels
Channel positions : L R
Sampling rate : 48.0 KHz
Stream size : 136 MiB (16%)
Alignment : Aligned on interleaves
Interleave, duration : 40 ms (1.00 video frame)
Релиз:

picpicpicpicpic
Для увеличения картинки щелкните мышкой по превью

Этот торрент недоступен для скачивания без регистрации, однако доступен по публичной magnet-ссылке (источники с публичных трекеров). Перед использованием ссылки прочтите, пожалуйста Пользовательское соглашение, а также как можно дольше оставайтесь на раздаче! Для того, чтобы скачать сам торрент-файл (который видит больше источников), а также для того, чтобы поблагодарить релизера, вам необходимо зарегистрироваться. Если регистрироваться лень - вы можете также попробовать скачать релиз по нашим партнерским ссылкам ниже.

[underverse.su].t56950.torrent
Трекер: Зарегистрирован   [ 11.08.2015 12:50 ]  

Статус: проверено (by makkol at 11.08.2015 13:18)
Поблагодарили: пока никто не поблагодарил...
Тип торрента: публичный - доступные источники с открытых трекеров: 
Размер: 853 MB (занимает 0,19 DVDR, для записи нужно 1 болванка DVDR/RW)
 
 
Похожие темы
Форум Тема Автор Торрент Отв. Посл. сооб.
Архив Неразлучные / Alone (Баньенг Писензенекун, Parkpoom Wongpoom) [2007 г., ужасы, драма, ] Joey
0 | 0

1 | 560

1

12.11.2010 23:48


Яндекс.Метрика powered by Sphinx


В Н И М А Н И Е
Сайт не распространяет и не хранит электронные версии произведений, а лишь бесплатно и без коммерческой выгоды (не требуя взамен платы,
SMS и т.д.) предоставляет доступ к создаваемому пользователями каталогу ссылок на торрент-файлы, которые содержат только списки хеш-сумм.
Убедительная просьба с жалобами обращаться напрямую к пользователю, разместившему торрент файл.

Вверх