Loading...
Error

Путешествие к маяку / La traversee du phare (Терри Redler) [1999 г., драма, DVDRip] VO + Original + Subs

Статистика раздачи
Размер:  893 MB   |    Зарегистрирован:  1 год 3 месяца   |    Скачан:  4 раза

Полного источника не было: 7 дней

Сидов:  0  |  0 KB/s  ]   Личеров:  0  |  0 KB/s  ]

* - сиды/пиры с внешних источников

   
 
Автор Сообщение

makkol Пол:Муж

11-Авг-2015 12:11

Путешествие к маяку / La traversée du phare


Год выпуска: 1999
Жанр: драма
Страна: Франция
Режиссер: Терри Redler
В ролях: Джим Ридлер, Кэтти Луазель, Корина Тузе, Терри Редлер, Люк Бернар, Софи Мунико, Ромэн Редлер, Жак Динам, Элис Арпентиньэр, Эрик Айбрен
Сюжет фильма:
10-летний Эрик от своей очередной школы не ждёт ничего хорошего: сирота не первый год мыкается по приемным семьям, меняя их одну за другой, не уживаясь с новыми родителями, не успевая завести друзей и найти себе верных товарищей. Он привык к отчуждению сверстников и равнодушию взрослых. В новой школе он встретил такого же изгоя, как и он. У Яна тоже нет ни отца, ни матери, которых не может заменить опекающая мальчика тётка, теряющаяся в средствах, чтобы вернуть ему нормальную жизнь, потому, что Ян — это не мальчик, а девочка Мари, одержимая мыслью о том, чтобы исполнить желание отца, хотевшего, чтобы вместо девочки родился мальчик, решив жить и вести себя, как мальчишка.

История преданной любви двух 10-летних детей. Отношения главных героев развиваются на фоне суровой реальности жизни, проблем взросления и наполнены неподдельными человеческими переживаниями. Трогательная история с напряжённым сюжетом. И всё это на фоне совершенно потрясающей музыки. А сложности, через которые придётся пройти главным героям, никого не могут оставить равнодушными...

  • Мировая премьера: 27 января 1999


Качество видео: DVDRip

Продолжительность: 01:36:20
Формат: AVI
Видео: XviD, 544x336 (16:10), 25.000 fps, 1025 kbps
Аудио #1: русский, любительский одноголосый закадровый (viktor_2838), MP3 2.0, 48 kHz, 128 kbps
Аудио #2: французский, оригинал, MP3 2.0, 48 kHz, 128 kbps
Субтитры: русские внешние (San-ya), SRT

Код:

Общее
Полное имя                               : La traversee du phare.avi
Формат                                   : AVI
Формат/Информация                        : Audio Video Interleave
Размер файла                             : 892 Мбайт
Продолжительность                        : 1 ч. 36 м.
Общий поток                              : 1295 Кбит/сек
Программа кодирования                    : VirtualDubModRus 1.5.10.2 (build 2542/release)
Библиотека кодирования                   : VirtualDubMod build 2542/release

Видео
Идентификатор                            : 0
Формат                                   : MPEG-4 Visual
Профиль формата                          : Advanced Simple@L5
Параметр BVOP формата                    : 1
Параметр QPel формата                    : Нет
Параметр GMC формата                     : Без точки перехода
Параметр матрицы формата                 : Default (H.263)
Режим смешивания                         : Сжатый битовый поток
Идентификатор кодека                     : XVID
Идентификатор кодека/Подсказка           : XviD
Продолжительность                        : 1 ч. 36 м.
Битрейт                                  : 1025 Кбит/сек
Ширина                                   : 544 пикселя
Высота                                   : 336 пикселей
Соотношение сторон                       : 16:10
Частота кадров                           : 25,000 кадров/сек
Цветовое пространство                    : YUV
Субдискретизация насыщенности            : 4:2:0
Битовая глубина                          : 8 бит
Тип развёртки                            : Прогрессивная
Метод сжатия                             : С потерями
Бит/(Пиксели*Кадры)                      : 0.224
Размер потока                            : 706 Мбайт (79%)
Библиотека кодирования                   : XviD 62

Аудио #1
Идентификатор                            : 1
Формат                                   : MPEG Audio
Версия формата                           : Version 1
Профиль формата                          : Layer 3
Режим                                    : Joint stereo
Расширение режима                        : MS Stereo
Идентификатор кодека                     : 55
Идентификатор кодека/Подсказка           : MP3
Продолжительность                        : 1 ч. 36 м.
Вид битрейта                             : Постоянный
Битрейт                                  : 128 Кбит/сек
Каналы                                   : 2 канала
Частота                                  : 48,0 КГц
Метод сжатия                             : С потерями
Размер потока                            : 88,2 Мбайт (10%)
Выравнивание                             : Соединение по промежуткам
Продолжительность промежутка             : 40  мс. (1,00 видеокадр)
Время предзагрузки промежутка            : 504  мс.

Аудио #2
Идентификатор                            : 2
Формат                                   : MPEG Audio
Версия формата                           : Version 1
Профиль формата                          : Layer 3
Режим                                    : Joint stereo
Расширение режима                        : MS Stereo
Идентификатор кодека                     : 55
Идентификатор кодека/Подсказка           : MP3
Продолжительность                        : 1 ч. 36 м.
Вид битрейта                             : Постоянный
Битрейт                                  : 128 Кбит/сек
Каналы                                   : 2 канала
Частота                                  : 48,0 КГц
Метод сжатия                             : С потерями
Размер потока                            : 88,2 Мбайт (10%)
Выравнивание                             : Соединение по промежуткам
Продолжительность промежутка             : 40  мс. (1,00 видеокадр)
Время предзагрузки промежутка            : 504  мс.
Библиотека кодирования                   : LAME3.98r
Настройки программы                      : -m j -V 4 -q 2 -lowpass 17 -b 128
Релиз:

picpicpicpicpic
Для увеличения картинки щелкните мышкой по превью

Этот торрент недоступен для скачивания без регистрации, однако доступен по публичной magnet-ссылке (источники с публичных трекеров). Перед использованием ссылки прочтите, пожалуйста Пользовательское соглашение, а также как можно дольше оставайтесь на раздаче! Для того, чтобы скачать сам торрент-файл (который видит больше источников), а также для того, чтобы поблагодарить релизера, вам необходимо зарегистрироваться. Если регистрироваться лень - вы можете также попробовать скачать релиз по нашим партнерским ссылкам ниже.

[underverse.su].t56948.torrent
Трекер: Зарегистрирован   [ 11.08.2015 12:11 ]  

Статус: проверено (by makkol at 11.08.2015 13:16)
Поблагодарили: пока никто не поблагодарил...
Тип торрента: публичный - доступные источники с открытых трекеров: 
Размер: 893 MB (занимает 0,2 DVDR, для записи нужно 1 болванка DVDR/RW)
 
 
Похожие темы
Форум Тема Автор Торрент Отв. Посл. сооб.
Зарубежное кино [DVDRip, Low-Res HDRip, и т.д.] Путешествия Гулливера / Gulliver's Travels (Роб Леттерман) [2010 г., фэнтези, комедия, приключения, BDRip] Dub garry
8 | 0

0 | 531

5

18.12.2012 20:28

Зарубежное кино [DVDRip, Low-Res HDRip, и т.д.] Путешествие на Запад: Покорение демонов / Journey to the West: Conquering the Demons (Чи-Кин Квок) [2013 г., фэнтези, комедия, приключения, HDRip] DVO 90ytr90
1 | 0

2 | 1642

59

24.03.2013 09:44

Зарубежное кино [DVDRip, Low-Res HDRip, и т.д.] Путешествие к Рождественской звезде / Reisen til julestjernen (Нильс Гауп) [2012 г., фэнтези, приключения, семейный, HDRip] MVO + Original 90ytr90
151 | 4

0 | 519

16

18.12.2013 05:31

T Зарубежное кино [DVDRip, Low-Res HDRip, и т.д.] Путешествие Гектора в поисках счастья / Hector and the Search for Happiness (Питер Челсом / Peter Chelsom) [2014 г., драма, комедия, приключения, WEBRip] Dub (чистый звук) 90ytr90
1 | 0

0 | 774

35

02.01.2015 07:58

T Зарубежное кино [DVDRip, Low-Res HDRip, и т.д.] Путешествие Гектора в поисках счастья / Hector and the Search for Happiness (Питер Челсом / Peter Chelsom) [2014 г., драма, комедия, приключения, WEBRip] Dub (чистый звук) 90ytr90
1 | 0

0 | 657

16

03.01.2015 15:11

T Зарубежное кино [DVDRip, Low-Res HDRip, и т.д.] Путешествие Гектора в поисках счастья / Hector and the Search for Happiness (Питер Челсом / Peter Chelsom) [2014 г., драма, комедия, приключения, BDRip-AVC] Dub + Original (Eng) 90ytr90
4 | 0

1 | 477

16

04.03.2015 19:15

T Зарубежное кино [DVDRip, Low-Res HDRip, и т.д.] Путешествие Гектора в поисках счастья / Hector and the Search for Happiness (Питер Челсом / Peter Chelsom) [2014 г., драма, комедия, приключения, HDRip] Dub (iTunes) 90ytr90
15 | 1

0 | 613

11

22.02.2015 10:06

T Зарубежное кино [DVDRip, Low-Res HDRip, и т.д.] Путешествие Гектора в поисках счастья / Hector and the Search for Happiness (Питер Челсом / Peter Chelsom) [2014 г., драма, комедия, приключения, HDRip] Dub (iTunes) 90ytr90
7 | 0

0 | 572

8

22.02.2015 10:10

Зарубежное кино [DVDRip, Low-Res HDRip, и т.д.] Путешествие из Парижа / Paris-Willouby (Артур Делер / Arthur Delaire, Квентин Рейно / Quentin Reynaud) [2015 г., комедия, WEB-DLRip] MVO (официальный звук) 90ytr90
205 | 1

0 | 560

15

29.05.2016 19:53

Зарубежное кино HQ Путешествие 2: Таинственный остров / Journey 2: The Mysterious Island (Брэд Пейтон) [2012 г., фантастика, фэнтези, боевик, комедия, приключения, семейный, HDRip] (Rus, Eng) HQ Underverse HQ Underverse
0 | 0

1 | 2524

56

28.02.2015 12:07


Яндекс.Метрика powered by Sphinx


В Н И М А Н И Е
Сайт не распространяет и не хранит электронные версии произведений, а лишь бесплатно и без коммерческой выгоды (не требуя взамен платы,
SMS и т.д.) предоставляет доступ к создаваемому пользователями каталогу ссылок на торрент-файлы, которые содержат только списки хеш-сумм.
Убедительная просьба с жалобами обращаться напрямую к пользователю, разместившему торрент файл.

Вверх