Loading...
Error

Вызов / Defiance / Сезон 3 (1-13 серии из 13) (Майкл Нанкин, Аллен Крокер, Энди Волк) [2015 г., фантастика, боевик, драма, WEB-DLRip] MVO

Статистика раздачи
Размер:  7,51 GB   |    Зарегистрирован:  1 год 3 месяца   |    Скачан:  2 раза

Полного источника не было: 5 месяцев 14 дней

Сидов:  0  |  0 KB/s  ]   Личеров:  0  |  0 KB/s  ]

* - сиды/пиры с внешних источников

   
 
Автор Сообщение

older Пол:Муж

11-Авг-2015 11:57

Вызов / Defiance / Сезон 3 (1-13 серии)


Год выпуска: 2015
Жанр: фантастика, боевик, драма
Страна: США
Режиссер: Майкл Нанкин, Аллен Крокер, Энди Волк
В ролях: Грант Боулер, Джули Бенц, Дьюшэйн Уильямс, Тони Карран, Тренна Китинг, Стефани Леонидас, Джейми Мюррэй, Николь Муньос, Джессика Николс, Джастин Рэйн
Сюжет фильма:
Сюжет сериала "Вызов" рассказывает о Земле, какой она стала после Бледных войн: противостояния землян и прилетевших "на поселение" инопланетян, чья система бинарных солнц превратилась в сверхновую. После того, как потери с обеих сторон достигли ужасных размеров и на Землю по ошибке попали терраформирующие машины инопланетян, горстка солдат осознала бессмысленность взаимного истребления и бросает вызов своим командирам. Цепная реакция привела к перемирию между землянами и вотанцами. В начале сериала со времен объявления перемирия прошло 15 лет. Бывший солдат Джозеф Нолан со своей приемной дочкой-инопланетянкой Айриссой попадает в некогда родной Сент-Луис, и вынужденно становится защитником местных жителей на посту шерифа. Ему предстоит жить в городе, ныне носящем гордое название Вызов, населенном представителями 6 рас, и бороться с силами, пытающимися стереть его с лица Земли.

Качество видео: WEB-DLRip

Продолжительность: ~ 00:43:00
Формат: AVI
Видео: XviD, 720х400, 1874 kbps
Аудио: русский, многоголосый закадровый [профессиональный], MP3 2.0, 192 kbps

Код:

Полное имя                               \Defiance (S03) LostFilm\Defiance.S03E01E02.rus.LostFilm.TV.avi
Формат                                   : AVI
Формат/Информация                        : Audio Video Interleave
Размер файла                             : 1,21 Гбайт
Продолжительность                        : 1 ч. 23 м.
Режим общего битрейта                    : Переменный
Общий поток                              : 2075 Кбит/сек
Программа кодирования                    : Nandub v1.0rc2
Библиотека кодирования                   : Nandub build 1853/release

Видео
Идентификатор                            : 0
Формат                                   : MPEG-4 Visual
Профиль формата                          : Advanced Simple@L5
Параметр BVOP формата                    : Нет
Параметр QPel формата                    : Нет
Параметр GMC формата                     : Без точки перехода
Параметр матрицы формата                 : Default (H.263)
Идентификатор кодека                     : XVID
Идентификатор кодека/Подсказка           : XviD
Продолжительность                        : 1 ч. 23 м.
Битрейт                                  : 1874 Кбит/сек
Ширина                                   : 720 пикселей
Высота                                   : 400 пикселей
Соотношение сторон                       : 16:9
Частота кадров                           : 23,976 кадра/сек
Цветовое пространство                    : YUV
Субдискретизация насыщенности            : 4:2:0
Битовая глубина                          : 8 бит
Тип развёртки                            : Прогрессивная
Метод сжатия                             : С потерями
Бит/(Пиксели*Кадры)                      : 0.271
Размер потока                            : 1,09 Гбайт (90%)
Библиотека кодирования                   : XviD 1.2.1 (UTC 2008-12-04)

Аудио
Идентификатор                            : 1
Формат                                   : MPEG Audio
Версия формата                           : Version 1
Профиль формата                          : Layer 3
Режим                                    : Joint stereo
Расширение режима                        : MS Stereo
Идентификатор кодека                     : 55
Идентификатор кодека/Подсказка           : MP3
Продолжительность                        : 1 ч. 23 м.
Вид битрейта                             : Переменный
Битрейт                                  : 192 Кбит/сек
Каналы                                   : 2 канала
Частота                                  : 48,0 КГц
Метод сжатия                             : С потерями
Размер потока                            : 112 Мбайт (9%)
Выравнивание                             : Соединение по промежуткам
Продолжительность промежутка             : 24  мс. (0,58 видеокадр)
Время предзагрузки промежутка            : 481  мс.
Библиотека кодирования                   : LAME3.97b
Настройки программы                      : -m j -V 4 -q 3 -lowpass 18.6 --abr 192

Внимание! Раздача ведётся путём добавления новых серий
При каждом добавлении создаётся новый торрент. Чтобы начать докачку новой серии, пользователям необходимо сделать следующее:
1. Остановить скачивание,
2. Удалить старый торрент у себя из клиента (старые серии удалять не надо),
3. Скачать новый торрент и запустить его у себя в клиенте вместо старого, при этом указать клиенту путь в старую папку куда и должно происходить скачивание новых серий.
Ваш клиент при этом должен произвести хеширование (проверку) старой папки (если не производит сам - помогите ему сделать это), и будет докачивать только те серии которых у вас ещё нет. Старые серии при этом не удаляются, а продолжают раздаваться!
Если вы уже удалили старые серии, то предотвратить повторную закачку старых серий можно, отжав галочку в соответствующих местах при запуске нового торрента.
Релиз группы:

picpicpicpicpic
Для увеличения картинки щелкните мышкой по превью

Этот торрент недоступен для скачивания без регистрации, однако доступен по публичной magnet-ссылке (источники с публичных трекеров). Перед использованием ссылки прочтите, пожалуйста Пользовательское соглашение, а также как можно дольше оставайтесь на раздаче! Для того, чтобы скачать сам торрент-файл (который видит больше источников), а также для того, чтобы поблагодарить релизера, вам необходимо зарегистрироваться. Если регистрироваться лень - вы можете также попробовать скачать релиз по нашим партнерским ссылкам ниже.

[underverse.su].t56947.torrent
Трекер: Зарегистрирован   [ 01.09.2015 15:00 ]  

Статус: проверено (by makkol at 01.09.2015 15:29)
Поблагодарили: 1 человек
Тип торрента: публичный - доступные источники с открытых трекеров: 
Размер: 7,51 GB (занимает 1,71 DVDR, для записи нужно 2 болванки DVDR/RW)
 
 
Похожие темы
Форум Тема Автор Торрент Отв. Посл. сооб.
Зарубежное кино HQ Вызов / Defiance (Эдвард Цвик) [2008 г., триллер, драма, военный, BDRip] Паукан
0 | 0

3 | 1592

22

20.09.2009 09:23

Зарубежные сериалы Вызов / Defiance / Сезон 1 / Серии 1-13 (13) (Майкл Нанкин) [2013 г., фантастика, боевик, драма , WEBDLRip] MVO + Original Чертёнок
9 | 1

0 | 921

22

11.07.2013 08:00

Зарубежные сериалы Вызов / Defiance / Сезон 2 (1-13 серии из 13) (Майкл Нанкин, Аллен Крокер, Энди Волк) [2014 г., фантастика, боевик, драма, WEB-DLRip] MVO older
2 | 0

0 | 402

4

11.08.2015 11:11



Последний раз редактировалось: older (05.09.2015 06:01), всего редактировалось 3 раз(а)

older Пол:Муж

18-Авг-2015 02:40

18.08.15. Раздача обновлена!
Добавлена 11 серия.
Перекачайте торрент файл!

older Пол:Муж

01-Сен-2015 15:01

01.09.15. Раздача обновлена!
Добавлены 12-13, последние серии. Сезон представлен полностью.
Перекачайте торрент файл!

Яндекс.Метрика powered by Sphinx


В Н И М А Н И Е
Сайт не распространяет и не хранит электронные версии произведений, а лишь бесплатно и без коммерческой выгоды (не требуя взамен платы,
SMS и т.д.) предоставляет доступ к создаваемому пользователями каталогу ссылок на торрент-файлы, которые содержат только списки хеш-сумм.
Убедительная просьба с жалобами обращаться напрямую к пользователю, разместившему торрент файл.

Вверх