Loading...
Error

Вызов / Defiance / Сезон 2 (1-13 серии из 13) (Майкл Нанкин, Аллен Крокер, Энди Волк) [2014 г., фантастика, боевик, драма, WEB-DLRip] MVO

Статистика раздачи
Размер:  6,53 GB   |    Зарегистрирован:  1 год 3 месяца   |    Скачан:  4 раза
Сидов:  2  |  0 KB/s  ]   Личеров:  0  |  0 KB/s  ]

* - сиды/пиры с внешних источников

   
 
Автор Сообщение

older Пол:Муж

11-Авг-2015 11:11

Вызов / Defiance / Сезон 2 (1-13 серии)


Год выпуска: 2014
Жанр: фантастика, боевик, драма
Страна: США
Режиссер: Майкл Нанкин, Аллен Крокер, Энди Волк
В ролях: Грант Боулер, Джули Бенц, Дьюшэйн Уильямс, Тони Карран, Тренна Китинг, Стефани Леонидас, Джейми Мюррэй, Николь Муньос, Джессика Николс, Джастин Рэйн
Сюжет фильма:
Сюжет сериала "Вызов" рассказывает о Земле, какой она стала после Бледных войн: противостояния землян и прилетевших "на поселение" инопланетян, чья система бинарных солнц превратилась в сверхновую. После того, как потери с обеих сторон достигли ужасных размеров и на Землю по ошибке попали терраформирующие машины инопланетян, горстка солдат осознала бессмысленность взаимного истребления и бросает вызов своим командирам. Цепная реакция привела к перемирию между землянами и вотанцами. В начале сериала со времен объявления перемирия прошло 15 лет. Бывший солдат Джозеф Нолан со своей приемной дочкой-инопланетянкой Айриссой попадает в некогда родной Сент-Луис, и вынужденно становится защитником местных жителей на посту шерифа. Ему предстоит жить в городе, ныне носящем гордое название Вызов, населенном представителями 6 рас, и бороться с силами, пытающимися стереть его с лица Земли.

Качество видео: WEB-DLRip

Продолжительность: ~ 00:43:00
Формат: AVI
Видео: XviD, 720х400, 1892 kbps
Аудио: русский, многоголосый закадровый [профессиональный], MP3 2.0, 192 kbps

Код:

Формат                                   : AVI
Формат/Информация                        : Audio Video Interleave
Размер файла                             : 646 Мбайт
Продолжительность                        : 43 м.
Режим общего битрейта                    : Переменный
Общий поток                              : 2092 Кбит/сек
Программа кодирования                    : Nandub v1.0rc2
Библиотека кодирования                   : Nandub build 1853/release

Видео
Идентификатор                            : 0
Формат                                   : MPEG-4 Visual
Профиль формата                          : Simple@L3
Параметр BVOP формата                    : Нет
Параметр QPel формата                    : Нет
Параметр GMC формата                     : Без точки перехода
Параметр матрицы формата                 : Default (H.263)
Идентификатор кодека                     : XVID
Идентификатор кодека/Подсказка           : XviD
Продолжительность                        : 43 м.
Битрейт                                  : 1892 Кбит/сек
Ширина                                   : 720 пикселей
Высота                                   : 400 пикселей
Соотношение сторон                       : 16:9
Частота кадров                           : 23,976 кадра/сек
Цветовое пространство                    : YUV
Субдискретизация насыщенности            : 4:2:0
Битовая глубина                          : 8 бит
Тип развёртки                            : Прогрессивная
Метод сжатия                             : С потерями
Бит/(Пиксели*Кадры)                      : 0.274
Размер потока                            : 584 Мбайт (90%)
Библиотека кодирования                   : XviD 1.2.1 (UTC 2008-12-04)

Аудио
Идентификатор                            : 1
Формат                                   : MPEG Audio
Версия формата                           : Version 1
Профиль формата                          : Layer 3
Режим                                    : Joint stereo
Расширение режима                        : MS Stereo
Идентификатор кодека                     : 55
Идентификатор кодека/Подсказка           : MP3
Продолжительность                        : 43 м.
Вид битрейта                             : Переменный
Битрейт                                  : 192 Кбит/сек
Каналы                                   : 2 канала
Частота                                  : 48,0 КГц
Метод сжатия                             : С потерями
Размер потока                            : 58,0 Мбайт (9%)
Выравнивание                             : Соединение по промежуткам
Продолжительность промежутка             : 24  мс. (0,58 видеокадр)
Время предзагрузки промежутка            : 486  мс.
Библиотека кодирования                   : LAME3.97b
Настройки программы                      : -m j -V 4 -q 3 -lowpass 18.6 --abr 192

Релиз группы:

picpicpicpicpic
Для увеличения картинки щелкните мышкой по превью

Этот торрент недоступен для скачивания без регистрации, однако доступен по публичной magnet-ссылке (источники с публичных трекеров). Перед использованием ссылки прочтите, пожалуйста Пользовательское соглашение, а также как можно дольше оставайтесь на раздаче! Для того, чтобы скачать сам торрент-файл (который видит больше источников), а также для того, чтобы поблагодарить релизера, вам необходимо зарегистрироваться. Если регистрироваться лень - вы можете также попробовать скачать релиз по нашим партнерским ссылкам ниже.

[underverse.su].t56945.torrent
Трекер: Зарегистрирован   [ 11.08.2015 11:11 ]  

Статус: проверено (by Ведьмочка at 11.08.2015 13:50)
Поблагодарили: пока никто не поблагодарил...
Тип торрента: публичный - доступные источники с открытых трекеров: 
Размер: 6,53 GB (занимает 1,49 DVDR, для записи нужно 2 болванки DVDR/RW)
 
 
Похожие темы
Форум Тема Автор Торрент Отв. Посл. сооб.
Зарубежное кино HQ Вызов / Defiance (Эдвард Цвик) [2008 г., триллер, драма, военный, BDRip] Паукан
0 | 0

3 | 1593

22

20.09.2009 09:23

Зарубежные сериалы Вызов / Defiance / Сезон 1 / Серии 1-13 (13) (Майкл Нанкин) [2013 г., фантастика, боевик, драма , WEBDLRip] MVO + Original Чертёнок
9 | 1

0 | 921

22

11.07.2013 08:00

Зарубежные сериалы Вызов / Defiance / Сезон 3 (1-13 серии из 13) (Майкл Нанкин, Аллен Крокер, Энди Волк) [2015 г., фантастика, боевик, драма, WEB-DLRip] MVO older
16 | 4

2 | 758

2

01.09.2015 15:01


Яндекс.Метрика powered by Sphinx


В Н И М А Н И Е
Сайт не распространяет и не хранит электронные версии произведений, а лишь бесплатно и без коммерческой выгоды (не требуя взамен платы,
SMS и т.д.) предоставляет доступ к создаваемому пользователями каталогу ссылок на торрент-файлы, которые содержат только списки хеш-сумм.
Убедительная просьба с жалобами обращаться напрямую к пользователю, разместившему торрент файл.

Вверх