Loading...
Error

Влюбись в меня, если осмелишься / Jeux d'enfants (Ян Самюэль) [2003 г., комедия, драма, мелодрама, DVDRip] Dub

Статистика раздачи
Размер:  1,46 GB   |    Зарегистрирован:  1 год 3 месяца   |    Скачан:  18 раз

Полного источника не было: 2 дня 12 часов

Сидов:  0  |  0 KB/s  ]   Личеров:  0  |  0 KB/s  ]

* - сиды/пиры с внешних источников

   
 
Автор Сообщение

makkol Пол:Муж

11-Авг-2015 10:56

Влюбись в меня, если осмелишься / Jeux d'enfants
«Ты в игре?»


Год выпуска: 2003
Жанр: комедия, драма, мелодрама
Производство: Франция , Бельгия [C.R.R.A.V, Canal+, Caneo Films, Artemis Productions, France 2 Cinema, M6 Films]
Режиссер: Ян Самюэль
В ролях: Гийом Кане, Марион Котийяр, Тибо Верхак, Жозефин Леба-Жоли, Эммануэль Грёнвольд, Жерар Уоткинс, Жилль Леллуш, Джулия Форе, Литиция Венеция Тарновска, Элоди Наварр, Натали Натье, Роберт Уиллар
Сюжет фильма:
Судьба свела их не зря: вдвоем они составили странную, но гармоничную пару. Они родились великими выдумщиками, такими, от которых стонала школа. Их проделки можно было бы осудить и окрестить их закоренелыми хулиганами, если бы эти двое не были просто маленькими детьми. Они придумали игру, такую, которую могли придумать только они, игру «осмелишься — не осмелишься». Они брали друг друга «на слабо». Игра росла вместе с ними, и однажды они стали взрослыми. Все изменилось, но они уже не могли отличить игру от жизни, потому что игра была их жизнью. Никто не хотел уступать. Они шутили и смеялись, они делали друг другу больно, они страдали и теряли годы… Они знали, что любят друг друга, они произносили эти слова, но игра возвращалась, не позволяя им стать просто мужчиной и женщиной… Однажды изменилось и это…

  • Мировая премьера: 29 августа 2003
  • Российская премьера: 18 ноября 2004


Качество видео: DVDRip

Продолжительность: 01:30:10
Формат: AVI
Видео: XviD, 704x384 (1.83:1), 25.000 fps, 1858 kbps
Аудио: русский, дублированный, AC3 5.1, 48 kHz, 448 kbps

Код:

Общее
Полное имя                               : Vlubis’_v_menya_esli_osmelishsya_2003_DVDRip_by_Dalemake.avi
Формат                                   : AVI
Формат/Информация                        : Audio Video Interleave
Размер файла                             : 1,46 Гбайт
Продолжительность                        : 1 ч. 30 м.
Общий поток                              : 2317 Кбит/сек
Программа кодирования                    : VirtualDubMod 1.5.10.3 | www.virtualdub-fr.org || (build 2550/release)
Библиотека кодирования                   : VirtualDubMod build 2550/release

Видео
Идентификатор                            : 0
Формат                                   : MPEG-4 Visual
Профиль формата                          : Advanced Simple@L5
Параметр BVOP формата                    : 1
Параметр QPel формата                    : Нет
Параметр GMC формата                     : Без точки перехода
Параметр матрицы формата                 : Выборочная
Идентификатор кодека                     : XVID
Идентификатор кодека/Подсказка           : XviD
Продолжительность                        : 1 ч. 30 м.
Битрейт                                  : 1858 Кбит/сек
Ширина                                   : 704 пикселя
Высота                                   : 384 пикселя
Соотношение сторон                       : 1,85:1
Частота кадров                           : 25,000 кадров/сек
Цветовое пространство                    : YUV
Субдискретизация насыщенности            : 4:2:0
Битовая глубина                          : 8 бит
Тип развёртки                            : Прогрессивная
Метод сжатия                             : С потерями
Бит/(Пиксели*Кадры)                      : 0.262
Размер потока                            : 1,17 Гбайт (81%)
Библиотека кодирования                   : XviD 73

Аудио
Идентификатор                            : 1
Формат                                   : AC-3
Формат/Информация                        : Audio Coding 3
Расширение режима                        : CM (complete main)
Параметр Endianness формата              : Big
Идентификатор кодека                     : 2000
Продолжительность                        : 1 ч. 30 м.
Вид битрейта                             : Постоянный
Битрейт                                  : 448 Кбит/сек
Каналы                                   : 6 каналов
Расположение каналов                     : Front: L C R, Side: L R, LFE
Частота                                  : 48,0 КГц
Метод сжатия                             : С потерями
Размер потока                            : 289 Мбайт (19%)
Выравнивание                             : Разделение по промежуткам
picpicpicpic
Для увеличения картинки щелкните мышкой по превью

Этот торрент недоступен для скачивания без регистрации, однако доступен по публичной magnet-ссылке (источники с публичных трекеров). Перед использованием ссылки прочтите, пожалуйста Пользовательское соглашение, а также как можно дольше оставайтесь на раздаче! Для того, чтобы скачать сам торрент-файл (который видит больше источников), а также для того, чтобы поблагодарить релизера, вам необходимо зарегистрироваться. Если регистрироваться лень - вы можете также попробовать скачать релиз по нашим партнерским ссылкам ниже.

[underverse.su].t56944.torrent
Трекер: Зарегистрирован   [ 11.08.2015 10:56 ]  

Статус: проверено (by makkol at 11.08.2015 13:13)
Поблагодарили: пока никто не поблагодарил...
Тип торрента: публичный - доступные источники с открытых трекеров: 
Размер: 1,46 GB (занимает 1/3 DVDR, для записи нужно 1 болванка DVDR/RW)
 
 

Яндекс.Метрика powered by Sphinx


В Н И М А Н И Е
Сайт не распространяет и не хранит электронные версии произведений, а лишь бесплатно и без коммерческой выгоды (не требуя взамен платы,
SMS и т.д.) предоставляет доступ к создаваемому пользователями каталогу ссылок на торрент-файлы, которые содержат только списки хеш-сумм.
Убедительная просьба с жалобами обращаться напрямую к пользователю, разместившему торрент файл.

Вверх