Loading...
Error

Сосны / Уэйуорд Пайнс / Wayward Pines / Сезон 1 (1-10 серии из 10) (Зал Батманглидж, Тим Хантер, Нимрод Антал) [2015 г., фантастика, триллер, драма, детектив, WEB-DLRip] MVO + Original

Статистика раздачи
Размер:  5,37 GB   |    Зарегистрирован:  1 год 3 месяца   |    Скачан:  7 раз

Полного источника не было: 1 месяц 19 дней

Сидов:  0  |  0 KB/s  ]   Личеров:  0  |  0 KB/s  ]

* - сиды/пиры с внешних источников

   
 
Автор Сообщение

older Пол:Муж

11-Авг-2015 09:03

Сосны / Уэйуорд Пайнс / Wayward Pines / Сезон 1 (1-10 серии)


Год выпуска: 2015
Жанр: фантастика, триллер, драма, детектив
Страна: США
Режиссер: Зал Батманглидж, Тим Хантер, Нимрод Антал
В ролях: Мэтт Диллон, Карла Гуджино, Тоби Джонс, Шаннин Соссамон, Рид Даймонд, Тим Гриффин, Чарли Тахэн, Джульетт Льюис, Мелисса Лео, Терренс Ховард
Сюжет фильма:
Агент секретной службы Итан Берк приезжает в пасторальный городок Уэйуорд Пайнс в Айдахо, чтобы найти двух пропавших фэбээровцев. Но расследование вместо ответов приносит лишь новые вопросы. Что же происходит в Уэйуорд Пайнс?

Качество видео: WEB-DLRip

Продолжительность: ~ 00:45:00
Формат: AVI
Видео: XviD, 720х400, 1418 kbps
Аудио #1: русский, многоголосый закадровый [профессиональный], MP3 2.0, 128 kbps
Аудио #2: английский, оригинал, MP3 2.0, 128 kbps

Код:

Формат                                   : AVI
Формат/Информация                        : Audio Video Interleave
Размер файла                             : 550 Мбайт
Продолжительность                        : 45 м.
Общий поток                              : 1688 Кбит/сек
Программа кодирования                    : VirtualDubMod 1.5.10.2 (build 2540/release)
Библиотека кодирования                   : VirtualDubMod build 2540/release

Видео
Идентификатор                            : 0
Формат                                   : MPEG-4 Visual
Профиль формата                          : Advanced Simple@L5
Параметр BVOP формата                    : 2
Параметр QPel формата                    : Нет
Параметр GMC формата                     : Без точки перехода
Параметр матрицы формата                 : Default (MPEG)
Идентификатор кодека                     : XVID
Идентификатор кодека/Подсказка           : XviD
Продолжительность                        : 45 м.
Битрейт                                  : 1418 Кбит/сек
Ширина                                   : 720 пикселей
Высота                                   : 400 пикселей
Соотношение сторон                       : 16:9
Частота кадров                           : 23,976 кадра/сек
Цветовое пространство                    : YUV
Субдискретизация насыщенности            : 4:2:0
Битовая глубина                          : 8 бит
Тип развёртки                            : Прогрессивная
Метод сжатия                             : С потерями
Бит/(Пиксели*Кадры)                      : 0.205
Размер потока                            : 462 Мбайт (84%)
Библиотека кодирования                   : XviD 64

Аудио #1
Идентификатор                            : 1
Формат                                   : MPEG Audio
Версия формата                           : Version 1
Профиль формата                          : Layer 3
Режим                                    : Joint stereo
Расширение режима                        : MS Stereo
Идентификатор кодека                     : 55
Идентификатор кодека/Подсказка           : MP3
Продолжительность                        : 45 м.
Вид битрейта                             : Постоянный
Битрейт                                  : 128 Кбит/сек
Каналы                                   : 2 канала
Частота                                  : 48,0 КГц
Метод сжатия                             : С потерями
Размер потока                            : 41,7 Мбайт (8%)
Выравнивание                             : Соединение по промежуткам
Продолжительность промежутка             : 42  мс. (1,00 видеокадр)
Время предзагрузки промежутка            : 504  мс.

Аудио #2
Идентификатор                            : 2
Формат                                   : MPEG Audio
Версия формата                           : Version 1
Профиль формата                          : Layer 3
Режим                                    : Joint stereo
Расширение режима                        : MS Stereo
Идентификатор кодека                     : 55
Идентификатор кодека/Подсказка           : MP3
Продолжительность                        : 45 м.
Вид битрейта                             : Постоянный
Битрейт                                  : 128 Кбит/сек
Каналы                                   : 2 канала
Частота                                  : 48,0 КГц
Метод сжатия                             : С потерями
Размер потока                            : 41,7 Мбайт (8%)
Выравнивание                             : Соединение по промежуткам
Продолжительность промежутка             : 42  мс. (1,00 видеокадр)
Время предзагрузки промежутка            : 504  мс.
Библиотека кодирования                   : LAME3.99r
Настройки программы                      : -m j -V 4 -q 2 -lowpass 17 -b 128

Релиз группы:

picpicpicpicpic
Для увеличения картинки щелкните мышкой по превью

Этот торрент недоступен для скачивания без регистрации, однако доступен по публичной magnet-ссылке (источники с публичных трекеров). Перед использованием ссылки прочтите, пожалуйста Пользовательское соглашение, а также как можно дольше оставайтесь на раздаче! Для того, чтобы скачать сам торрент-файл (который видит больше источников), а также для того, чтобы поблагодарить релизера, вам необходимо зарегистрироваться. Если регистрироваться лень - вы можете также попробовать скачать релиз по нашим партнерским ссылкам ниже.

[underverse.su].t56937.torrent
Трекер: Зарегистрирован   [ 11.08.2015 09:03 ]  

Статус: проверено (by makkol at 11.08.2015 10:15)
Поблагодарили: пока никто не поблагодарил...
Тип торрента: публичный - доступные источники с открытых трекеров: 
Размер: 5,37 GB (занимает 1,23 DVDR, для записи нужно 2 болванки DVDR/RW)
 
 

Яндекс.Метрика powered by Sphinx


В Н И М А Н И Е
Сайт не распространяет и не хранит электронные версии произведений, а лишь бесплатно и без коммерческой выгоды (не требуя взамен платы,
SMS и т.д.) предоставляет доступ к создаваемому пользователями каталогу ссылок на торрент-файлы, которые содержат только списки хеш-сумм.
Убедительная просьба с жалобами обращаться напрямую к пользователю, разместившему торрент файл.

Вверх