Loading...
Error

Рэй Донован / Ray Donovan / Сезон 3 (1-12 серии из 12) (Майкл Аппендаль, Дэниэл Эттиэс, Джон Дал) [2015 г., драма, криминал, HDTVRip] MVO + Original

Статистика раздачи
Размер:  7,92 GB   |    Зарегистрирован:  1 год 1 месяц   |    Скачан:  14 раз

Полного источника не было: 1 день 20 часов

Сидов:  0  |  0 KB/s  ]   Личеров:  0  |  0 KB/s  ]

* - сиды/пиры с внешних источников

   
 
Автор Сообщение

older Пол:Муж

10-Авг-2015 21:44

Рэй Донован / Ray Donovan / Сезон 3


Год выпуска: 2015
Жанр: драма, криминал
Страна: США ,
Режиссер: Майкл Аппендаль, Дэниэл Эттиэс, Джон Дал
В ролях: Лив Шрайбер, Паула Малкомсон, Кэтрин Монниг, Пуч Холл, Кэррис Дорси, Девон Бэгби, Джон Войт, Стивен Бауэр, Уильям Стэнфорд Дэвис, Майкл МакГрэйди, Фрэнк Уэйли, Эллиотт Гулд, Октавиус Дж. Джонсон, Эмбир Чилдерс
Сюжет фильма:
Рэй Донован - первоклассный специалист по устранению проблем любой сложности. Его клиенты - самые знаменитые и влиятельные люди Лос-Анджелеса, для которых он исполняет практически любые задания. Единственные проблемы, которые Рэю не под силу уладить, возникают в его собственной семье в Южном Бостоне. Одна из них - освобожденный из тюрьмы папаша-гангстер, угрожающий благополучию семейства. Помимо этого, один из братьев Рэя никак не может прийти в себя после совершенного над ним насилия, а второй страдает от болезни Паркинсона. Рэю Доновану предстоит не только помочь близким, но и защитить собственную жену и детей от своего коварного отца, который жаждет вновь занять позицию главы семьи.

Качество видео: HDTVRip

Продолжительность: ~ 00:52:00
Формат: AVI
Видео: XviD, 720х400, 1560 kbps
Аудио #1: русский, многоголосый закадровый [профессиональный], MP3 2.0, 128 kbps
Аудио #2: английский, оригинал, MP3 2.0, 128 kbps

Код:

Формат                                   : AVI
Формат/Информация                        : Audio Video Interleave
Размер файла                             : 688 Мбайт
Продолжительность                        : 52 м.
Общий поток                              : 1830 Кбит/сек
Программа кодирования                    : VirtualDubMod 1.5.10.3 | www.virtualdub-fr.org || (build 2550/release)
Библиотека кодирования                   : VirtualDubMod build 2550/release

Видео
Идентификатор                            : 0
Формат                                   : MPEG-4 Visual
Профиль формата                          : Advanced Simple@L5
Параметр BVOP формата                    : 2
Параметр QPel формата                    : Нет
Параметр GMC формата                     : Без точки перехода
Параметр матрицы формата                 : Default (MPEG)
Идентификатор кодека                     : XVID
Идентификатор кодека/Подсказка           : XviD
Продолжительность                        : 52 м.
Битрейт                                  : 1560 Кбит/сек
Ширина                                   : 720 пикселей
Высота                                   : 400 пикселей
Соотношение сторон                       : 16:9
Частота кадров                           : 23,976 кадра/сек
Цветовое пространство                    : YUV
Субдискретизация насыщенности            : 4:2:0
Битовая глубина                          : 8 бит
Тип развёртки                            : Прогрессивная
Метод сжатия                             : С потерями
Бит/(Пиксели*Кадры)                      : 0.226
Размер потока                            : 587 Мбайт (85%)
Библиотека кодирования                   : XviD 73

Аудио #1
Идентификатор                            : 1
Формат                                   : MPEG Audio
Версия формата                           : Version 1
Профиль формата                          : Layer 3
Режим                                    : Joint stereo
Расширение режима                        : MS Stereo
Идентификатор кодека                     : 55
Идентификатор кодека/Подсказка           : MP3
Продолжительность                        : 52 м.
Вид битрейта                             : Постоянный
Битрейт                                  : 128 Кбит/сек
Каналы                                   : 2 канала
Частота                                  : 48,0 КГц
Метод сжатия                             : С потерями
Размер потока                            : 48,1 Мбайт (7%)
Выравнивание                             : Соединение по промежуткам
Продолжительность промежутка             : 42  мс. (1,00 видеокадр)
Время предзагрузки промежутка            : 504  мс.

Аудио #2
Идентификатор                            : 2
Формат                                   : MPEG Audio
Версия формата                           : Version 1
Профиль формата                          : Layer 3
Режим                                    : Joint stereo
Расширение режима                        : MS Stereo
Идентификатор кодека                     : 55
Идентификатор кодека/Подсказка           : MP3
Продолжительность                        : 52 м.
Вид битрейта                             : Постоянный
Битрейт                                  : 128 Кбит/сек
Каналы                                   : 2 канала
Частота                                  : 48,0 КГц
Метод сжатия                             : С потерями
Размер потока                            : 48,1 Мбайт (7%)
Выравнивание                             : Соединение по промежуткам
Продолжительность промежутка             : 42  мс. (1,00 видеокадр)
Время предзагрузки промежутка            : 504  мс.

Внимание! Раздача ведётся путём добавления новых серий
При каждом добавлении создаётся новый торрент. Чтобы начать докачку новой серии, пользователям необходимо сделать следующее:
1. Остановить скачивание,
2. Удалить старый торрент у себя из клиента (старые серии удалять не надо),
3. Скачать новый торрент и запустить его у себя в клиенте вместо старого, при этом указать клиенту путь в старую папку куда и должно происходить скачивание новых серий.
Ваш клиент при этом должен произвести хеширование (проверку) старой папки (если не производит сам - помогите ему сделать это), и будет докачивать только те серии которых у вас ещё нет. Старые серии при этом не удаляются, а продолжают раздаваться!
Если вы уже удалили старые серии, то предотвратить повторную закачку старых серий можно, отжав галочку в соответствующих местах при запуске нового торрента.
Релиз группы:

picpicpicpicpic
Для увеличения картинки щелкните мышкой по превью


12.10.15. Раздача обновлена!
Добавлена 12, последняя серия. Сезон представлен полностью.
Перекачайте торрент файл!

Этот торрент недоступен для скачивания без регистрации, однако доступен по публичной magnet-ссылке (источники с публичных трекеров). Перед использованием ссылки прочтите, пожалуйста Пользовательское соглашение, а также как можно дольше оставайтесь на раздаче! Для того, чтобы скачать сам торрент-файл (который видит больше источников), а также для того, чтобы поблагодарить релизера, вам необходимо зарегистрироваться. Если регистрироваться лень - вы можете также попробовать скачать релиз по нашим партнерским ссылкам ниже.

[underverse.su].t56922.torrent
Трекер: Зарегистрирован   [ 12.10.2015 17:41 ]  

Статус: проверено (by makkol at 12.10.2015 22:22)
Поблагодарили: 1 человек
Тип торрента: публичный - доступные источники с открытых трекеров: 
Размер: 7,92 GB (занимает 1,81 DVDR, для записи нужно 2 болванки DVDR/RW)
 
 
Похожие темы
Форум Тема Автор Торрент Отв. Посл. сооб.
Зарубежные сериалы Рэй Донован / Ray Donovan / Сезон 1 (01-12 серии из 12) (Джон Дал, Майкл Аппендаль, Такер Гейтс, ...) [2013 г., драма, криминал, HDTVRip] MVO (NewStudio) + Original (Eng) 90ytr90
28 | 5

4 | 4017

31

31.08.2013 15:38

Зарубежные сериалы Рэй Донован / Ray Donovan / Сезон 2 (1-12 серии из 12) (Майкл Аппендаль, Дэниэл Эттиэс, Джон Дал) [2014 г., драма, криминал, HDTVRip] MVO + Original older
8 | 0

0 | 688

11

10.08.2015 20:28

Зарубежные сериалы Рэй Донован / Ray Donovan / Сезон 4 (01-12 серии из 12) (Джон Дал, Майкл Аппендаль, Такер Гейтс, ...) [2016 г., драма, криминал, WEBRip] MVO (NewStudio) + Original (Eng) 90ytr90
53 | 18

0 | 313

5

25.09.2016 09:09



Последний раз редактировалось: older (12.10.2015 17:41), всего редактировалось 6 раз(а)

older Пол:Муж

18-Авг-2015 02:36

18.08.15. Раздача обновлена!
Добавлена 6 серия.
Перекачайте торрент файл!

older Пол:Муж

07-Сен-2015 05:58

07.09.15. Раздача обновлена!
Добавлены 7-8 серии.
Перекачайте торрент файл!

older Пол:Муж

09-Сен-2015 04:00

09.09.15. Раздача обновлена!
Добавлена 9 серия.
Перекачайте торрент файл!

older Пол:Муж

16-Сен-2015 06:56

16.09.15. Раздача обновлена!
Добавлена 10 серия.
Перекачайте торрент файл!

older Пол:Муж

25-Сен-2015 07:23

25.09.15. Раздача обновлена!
Добавлена 11 серия.
Перекачайте торрент файл!

older Пол:Муж

12-Окт-2015 17:41

12.10.15. Раздача обновлена!
Добавлена 12, последняя серия. Сезон представлен полностью.
Перекачайте торрент файл!

Яндекс.Метрика powered by Sphinx


В Н И М А Н И Е
Сайт не распространяет и не хранит электронные версии произведений, а лишь бесплатно и без коммерческой выгоды (не требуя взамен платы,
SMS и т.д.) предоставляет доступ к создаваемому пользователями каталогу ссылок на торрент-файлы, которые содержат только списки хеш-сумм.
Убедительная просьба с жалобами обращаться напрямую к пользователю, разместившему торрент файл.

Вверх