Loading...
Error

Рэй Донован / Ray Donovan / Сезон 2 (1-12 серии из 12) (Майкл Аппендаль, Дэниэл Эттиэс, Джон Дал) [2014 г., драма, криминал, HDTVRip] MVO + Original

Статистика раздачи
Размер:  8,22 GB   |    Зарегистрирован:  1 год 3 месяца   |    Скачан:  11 раз

Полного источника не было: 2 дня 18 часов

Сидов:  0  |  0 KB/s  ]   Личеров:  0  |  0 KB/s  ]

* - сиды/пиры с внешних источников

   
 
Автор Сообщение

older Пол:Муж

10-Авг-2015 20:28

Рэй Донован / Ray Donovan / Сезон 2 (1-12 серии)


Год выпуска: 2014
Жанр: драма, криминал
Страна: США
Режиссер: Майкл Аппендаль, Дэниэл Эттиэс, Джон Дал
В ролях: Лив Шрайбер, Девон Бэгби, Уильям Стэнфорд Дэвис, Кэтрин Менниг, Фрэнк Уэйли, Октавиус Дж. Джонсон
Сюжет фильма:
Сериал расскажет о Рэе Доноване, профессиональном "разруливателе проблем", которого вызывают, когда у кого-то из "богатых и знаменитых" жителей Лос-Анджелеса возникают сложности.

Качество видео: HDTVRip

Продолжительность: ~ 00:50:00
Формат: AVI
Видео: XviD, 720х400, 1486 kbps
Аудио #1: русский, многоголосый закадровый [профессиональный], MP3 2.0, 128 kbps
Аудио #2: английский, оригинал, MP3 2.0, 128 kbps

Код:

Формат                                   : AVI
Формат/Информация                        : Audio Video Interleave
Размер файла                             : 700 Мбайт
Продолжительность                        : 55 м.
Общий поток                              : 1755 Кбит/сек
Программа кодирования                    : VirtualDubMod 1.5.10.2 (build 2540/release)
Библиотека кодирования                   : VirtualDubMod build 2540/release

Видео
Идентификатор                            : 0
Формат                                   : MPEG-4 Visual
Профиль формата                          : Advanced Simple@L5
Параметр BVOP формата                    : 2
Параметр QPel формата                    : Нет
Параметр GMC формата                     : Без точки перехода
Параметр матрицы формата                 : Default (MPEG)
Идентификатор кодека                     : XVID
Идентификатор кодека/Подсказка           : XviD
Продолжительность                        : 55 м.
Битрейт                                  : 1486 Кбит/сек
Ширина                                   : 720 пикселей
Высота                                   : 400 пикселей
Соотношение сторон                       : 16:9
Частота кадров                           : 23,976 кадра/сек
Цветовое пространство                    : YUV
Субдискретизация насыщенности            : 4:2:0
Битовая глубина                          : 8 бит
Тип развёртки                            : Прогрессивная
Метод сжатия                             : С потерями
Бит/(Пиксели*Кадры)                      : 0.215
Размер потока                            : 592 Мбайт (85%)
Библиотека кодирования                   : XviD 64

Аудио #1
Идентификатор                            : 1
Формат                                   : MPEG Audio
Версия формата                           : Version 1
Профиль формата                          : Layer 3
Режим                                    : Joint stereo
Расширение режима                        : MS Stereo
Идентификатор кодека                     : 55
Идентификатор кодека/Подсказка           : MP3
Продолжительность                        : 55 м.
Вид битрейта                             : Постоянный
Битрейт                                  : 128 Кбит/сек
Каналы                                   : 2 канала
Частота                                  : 48,0 КГц
Метод сжатия                             : С потерями
Размер потока                            : 51,0 Мбайт (7%)
Выравнивание                             : Соединение по промежуткам
Продолжительность промежутка             : 42  мс. (1,00 видеокадр)
Время предзагрузки промежутка            : 504  мс.

Аудио #2
Идентификатор                            : 2
Формат                                   : MPEG Audio
Версия формата                           : Version 1
Профиль формата                          : Layer 3
Режим                                    : Joint stereo
Идентификатор кодека                     : 55
Идентификатор кодека/Подсказка           : MP3
Продолжительность                        : 55 м.
Вид битрейта                             : Постоянный
Битрейт                                  : 128 Кбит/сек
Каналы                                   : 2 канала
Частота                                  : 48,0 КГц
Метод сжатия                             : С потерями
Размер потока                            : 51,0 Мбайт (7%)
Выравнивание                             : Соединение по промежуткам
Продолжительность промежутка             : 42  мс. (1,00 видеокадр)
Время предзагрузки промежутка            : 504  мс.
Библиотека кодирования                   : LAME3.99r
Настройки программы                      : -m j -V 4 -q 2 -lowpass 17 -b 128

Релиз группы:

picpicpicpicpic
Для увеличения картинки щелкните мышкой по превью

Этот торрент недоступен для скачивания без регистрации, однако доступен по публичной magnet-ссылке (источники с публичных трекеров). Перед использованием ссылки прочтите, пожалуйста Пользовательское соглашение, а также как можно дольше оставайтесь на раздаче! Для того, чтобы скачать сам торрент-файл (который видит больше источников), а также для того, чтобы поблагодарить релизера, вам необходимо зарегистрироваться. Если регистрироваться лень - вы можете также попробовать скачать релиз по нашим партнерским ссылкам ниже.

[underverse.su].t56920.torrent
Трекер: Зарегистрирован   [ 10.08.2015 20:28 ]  

Статус: проверено (by makkol at 11.08.2015 10:00)
Поблагодарили: 1 человек
Тип торрента: публичный - доступные источники с открытых трекеров: 
Размер: 8,22 GB (занимает 1,88 DVDR, для записи нужно 2 болванки DVDR/RW)
 
 
Похожие темы
Форум Тема Автор Торрент Отв. Посл. сооб.
Зарубежные сериалы Рэй Донован / Ray Donovan / Сезон 1 (01-12 серии из 12) (Джон Дал, Майкл Аппендаль, Такер Гейтс, ...) [2013 г., драма, криминал, HDTVRip] MVO (NewStudio) + Original (Eng) 90ytr90
28 | 5

4 | 4018

31

31.08.2013 15:38

Зарубежные сериалы Рэй Донован / Ray Donovan / Сезон 3 (1-12 серии из 12) (Майкл Аппендаль, Дэниэл Эттиэс, Джон Дал) [2015 г., драма, криминал, HDTVRip] MVO + Original older
45 | 4

6 | 1512

14

12.10.2015 17:41

Зарубежные сериалы Рэй Донован / Ray Donovan / Сезон 4 (01-12 серии из 12) (Джон Дал, Майкл Аппендаль, Такер Гейтс, ...) [2016 г., драма, криминал, WEBRip] MVO (NewStudio) + Original (Eng) 90ytr90
39 | 27

0 | 323

5

25.09.2016 09:09


Яндекс.Метрика powered by Sphinx


В Н И М А Н И Е
Сайт не распространяет и не хранит электронные версии произведений, а лишь бесплатно и без коммерческой выгоды (не требуя взамен платы,
SMS и т.д.) предоставляет доступ к создаваемому пользователями каталогу ссылок на торрент-файлы, которые содержат только списки хеш-сумм.
Убедительная просьба с жалобами обращаться напрямую к пользователю, разместившему торрент файл.

Вверх