Loading...
Error

Риццоли и Айлc / Rizzoli & Isles / Сезон 6 (1-12 серии) (18) (Марк Абер, Стив Робин, Майкл Кэтлман) [2015 г., драма, криминал, детектив, WEB-DLRip] MVO + Original

Статистика раздачи
Размер:  6,45 GB   |    Зарегистрирован:  1 год 2 месяца   |    Скачан:  0 раз

Полного источника не было: Никогда

Сидов:  0  |  0 KB/s  ]   Личеров:  0  |  0 KB/s  ]

* - сиды/пиры с внешних источников

   
 
Автор Сообщение

older Пол:Муж

10-Авг-2015 20:08

Риццоли и Айлc / Rizzoli & Isles / Сезон 6 (1-12 серии)


Год выпуска: 2015
Жанр: драма, криминал, детектив
Страна: США
Режиссер: Марк Абер, Стив Робин, Майкл Кэтлман
В ролях: Саша Александер, Энджи Хэрмон, Лоррейн Бракко, Брюс МакГилл, Дженнифер Холлэнд, Джэйсон Блэр, Том Бауэр, Джордан Бриджес, Мариса Рамирез, Кристал Рид, Ли Томпсон Янг, Брайан Гудман, Рик Чэмберс, Райан Джеймс Нолан, Чазз Пальминтери, Майкл Масси, Дэррил Алан Рид, Билли Бёрк, Донни Уолберг, Колин Эглсфилд, Крис Батлер, Джек Конли, Омар Дж. Дорси, Джон Доумен
Сюжет фильма:
Американский детективный телесериал, основанный на серии книг Тесс Герритсен. Главная героиня сериала — Джейн Риццоли, бостонский детектив, которая вместе с патологоанатом Морой Айлс, раскрывает преступления.

Качество видео: WEB-DLRip

Продолжительность: ~ 00:42:00
Формат: AVI
Видео: XviD, 720х400, 1539 kbps
Аудио #1: русский, многоголосый закадровый [профессиональный], MP3 2.0, 128 kbps
Аудио #2: английский, оригинал, MP3 2.0, kbps

Код:

Формат                                   : AVI
Формат/Информация                        : Audio Video Interleave
Размер файла                             : 550 Мбайт
Продолжительность                        : 42 м.
Общий поток                              : 1809 Кбит/сек
Программа кодирования                    : VirtualDubMod 1.5.10.2 (build 2540/release)
Библиотека кодирования                   : VirtualDubMod build 2540/release

Видео
Идентификатор                            : 0
Формат                                   : MPEG-4 Visual
Профиль формата                          : Advanced Simple@L5
Параметр BVOP формата                    : 2
Параметр QPel формата                    : Нет
Параметр GMC формата                     : Без точки перехода
Параметр матрицы формата                 : Default (MPEG)
Идентификатор кодека                     : XVID
Идентификатор кодека/Подсказка           : XviD
Продолжительность                        : 42 м.
Битрейт                                  : 1539 Кбит/сек
Ширина                                   : 720 пикселей
Высота                                   : 400 пикселей
Соотношение сторон                       : 16:9
Частота кадров                           : 23,976 кадра/сек
Цветовое пространство                    : YUV
Субдискретизация насыщенности            : 4:2:0
Битовая глубина                          : 8 бит
Тип развёртки                            : Прогрессивная
Метод сжатия                             : С потерями
Бит/(Пиксели*Кадры)                      : 0.223
Размер потока                            : 468 Мбайт (85%)
Библиотека кодирования                   : XviD 73

Аудио #1
Идентификатор                            : 1
Формат                                   : MPEG Audio
Версия формата                           : Version 1
Профиль формата                          : Layer 3
Режим                                    : Joint stereo
Расширение режима                        : MS Stereo
Идентификатор кодека                     : 55
Идентификатор кодека/Подсказка           : MP3
Продолжительность                        : 42 м.
Вид битрейта                             : Постоянный
Битрейт                                  : 128 Кбит/сек
Каналы                                   : 2 канала
Частота                                  : 48,0 КГц
Метод сжатия                             : С потерями
Размер потока                            : 38,9 Мбайт (7%)
Выравнивание                             : Соединение по промежуткам
Продолжительность промежутка             : 42  мс. (1,00 видеокадр)
Время предзагрузки промежутка            : 504  мс.

Аудио #2
Идентификатор                            : 2
Формат                                   : MPEG Audio
Версия формата                           : Version 1
Профиль формата                          : Layer 3
Режим                                    : Joint stereo
Расширение режима                        : MS Stereo
Идентификатор кодека                     : 55
Идентификатор кодека/Подсказка           : MP3
Продолжительность                        : 42 м.
Вид битрейта                             : Постоянный
Битрейт                                  : 128 Кбит/сек
Каналы                                   : 2 канала
Частота                                  : 48,0 КГц
Метод сжатия                             : С потерями
Размер потока                            : 38,9 Мбайт (7%)
Выравнивание                             : Соединение по промежуткам
Продолжительность промежутка             : 42  мс. (1,00 видеокадр)
Время предзагрузки промежутка            : 504  мс.
Библиотека кодирования                   : LAME3.99r
Настройки программы                      : -m j -V 4 -q 2 -lowpass 17 -b 128

Внимание! Раздача ведётся путём добавления новых серий
При каждом добавлении создаётся новый торрент. Чтобы начать докачку новой серии, пользователям необходимо сделать следующее:
1. Остановить скачивание,
2. Удалить старый торрент у себя из клиента (старые серии удалять не надо),
3. Скачать новый торрент и запустить его у себя в клиенте вместо старого, при этом указать клиенту путь в старую папку куда и должно происходить скачивание новых серий.
Ваш клиент при этом должен произвести хеширование (проверку) старой папки (если не производит сам - помогите ему сделать это), и будет докачивать только те серии которых у вас ещё нет. Старые серии при этом не удаляются, а продолжают раздаваться!
Если вы уже удалили старые серии, то предотвратить повторную закачку старых серий можно, отжав галочку в соответствующих местах при запуске нового торрента.
Релиз группы:

picpicpicpicpic
Для увеличения картинки щелкните мышкой по превью


09.09.15. Раздача обновлена!
Добавлена 12 серия.
Перекачайте торрент файл!

Этот торрент недоступен для скачивания без регистрации, однако доступен по публичной magnet-ссылке (источники с публичных трекеров). Перед использованием ссылки прочтите, пожалуйста Пользовательское соглашение, а также как можно дольше оставайтесь на раздаче! Для того, чтобы скачать сам торрент-файл (который видит больше источников), а также для того, чтобы поблагодарить релизера, вам необходимо зарегистрироваться. Если регистрироваться лень - вы можете также попробовать скачать релиз по нашим партнерским ссылкам ниже.

[underverse.su].t56918.torrent
Трекер: Зарегистрирован   [ 09.09.2015 03:45 ]  

Статус: T временная (by makkol at 09.09.2015 12:27)
Поблагодарили: пока никто не поблагодарил...
Тип торрента: публичный - доступные источники с открытых трекеров: 
Размер: 6,45 GB (занимает 1,47 DVDR, для записи нужно 2 болванки DVDR/RW)
 
 
Похожие темы
Форум Тема Автор Торрент Отв. Посл. сооб.
Зарубежные сериалы Риццоли и Айлc / Rizzoli & Isles / Сезоны 1-4 (56 серий) (Марк Абер, Стив Робин, Майкл Кэтлман) [2010-2013 г., драма, криминал, детектив, WEB-DLRip] MVO + Original older
0 | 0

0 | 286

0

10.08.2015 19:15

Зарубежные сериалы Риццоли и Айлc / Rizzoli & Isles / Сезон 5 (1-18 серии из 18) (Марк Абер, Стив Робин, Майкл Кэтлман) [2014-2015 г., драма, криминал, детектив, WEB-DLRip] MVO + Original older
6 | 3

0 | 319

2

10.08.2015 19:39



Последний раз редактировалось: older (09.09.2015 12:25), всего редактировалось 5 раз(а)

older Пол:Муж

18-Авг-2015 02:34

18.08.15. Раздача обновлена!
Добавлена 9 серия.
Перекачайте торрент файл!

older Пол:Муж

25-Авг-2015 04:02

25.08.15. Раздача обновлена!
Добавлена 10 серия.
Перекачайте торрент файл!

older Пол:Муж

07-Сен-2015 15:10

07.09.15. Раздача обновлена!
Добавлена 11 серия.
Перекачайте торрент файл!

older Пол:Муж

09-Сен-2015 03:45

09.09.15. Раздача обновлена!
Добавлена 12 серия.
Перекачайте торрент файл!

Яндекс.Метрика powered by Sphinx


В Н И М А Н И Е
Сайт не распространяет и не хранит электронные версии произведений, а лишь бесплатно и без коммерческой выгоды (не требуя взамен платы,
SMS и т.д.) предоставляет доступ к создаваемому пользователями каталогу ссылок на торрент-файлы, которые содержат только списки хеш-сумм.
Убедительная просьба с жалобами обращаться напрямую к пользователю, разместившему торрент файл.

Вверх