Loading...
Error

Риццоли и Айлc / Rizzoli & Isles / Сезон 5 (1-18 серии из 18) (Марк Абер, Стив Робин, Майкл Кэтлман) [2014-2015 г., драма, криминал, детектив, WEB-DLRip] MVO + Original

Статистика раздачи
Размер:  9,61 GB   |    Зарегистрирован:  1 год 3 месяца   |    Скачан:  2 раза

Полного источника не было: 4 месяца 28 дней

Сидов:  0  |  0 KB/s  ]   Личеров:  0  |  0 KB/s  ]

* - сиды/пиры с внешних источников

   
 
Автор Сообщение

older Пол:Муж

10-Авг-2015 19:39

Риццоли и Айлc / Rizzoli & Isles / Сезон 5 (1-18 серии)


Год выпуска: 2014-2015
Жанр: драма, криминал, детектив
Страна: США
Режиссер: Марк Абер, Стив Робин, Майкл Кэтлман
В ролях: Саша Александер, Энджи Хэрмон, Лоррейн Бракко, Брюс МакГилл, Дженнифер Холлэнд, Джэйсон Блэр, Том Бауэр, Джордан Бриджес, Мариса Рамирез, Кристал Рид, Ли Томпсон Янг, Брайан Гудман, Рик Чэмберс, Райан Джеймс Нолан, Чазз Пальминтери, Майкл Масси, Дэррил Алан Рид, Билли Бёрк, Донни Уолберг, Колин Эглсфилд, Крис Батлер, Джек Конли, Омар Дж. Дорси, Джон Доумен
Сюжет фильма:
Риццоли и Айлс (англ. Rizzoli&Isles) — американский детективный телесериал, основанный на серии книг Тесс Герритсен. Главные героини — детектив бостонского отдела убийств Джейн Риццоли и патологоанатом Мора Айлс. Премьера состоялась 12 июля 2010 на канале TNT.
Каждая серия представляет собой расследование одного убийства или серии убийств, произошедших в Бостоне. Им занимается Джейн Риццоли, её напарник Барри Фрост и её бывший напарник Винс Корсак. В отличие от прочих детективных сериалов, здесь большое внимание уделяется внерабочей жизни героев, в частности — дружбе между Риццоли и Айлс.

Качество видео: WEB-DLRip

Продолжительность: ~ 00:42:00
Формат: AVI
Видео: XviD, 720х400, 1372 kbps
Аудио #1: русский, многоголосый закадровый [профессиональный], MP3 2.0, 128 kbps
Аудио #2: английский, оригинал, MP3 2.0, 128 kbps

Код:

Формат                                   : AVI
Формат/Информация                        : Audio Video Interleave
Размер файла                             : 499 Мбайт
Продолжительность                        : 42 м.
Общий поток                              : 1642 Кбит/сек
Программа кодирования                    : VirtualDubMod 1.5.10.2 (build 2540/release)
Библиотека кодирования                   : VirtualDubMod build 2540/release

Видео
Идентификатор                            : 0
Формат                                   : MPEG-4 Visual
Профиль формата                          : Advanced Simple@L5
Параметр BVOP формата                    : 2
Параметр QPel формата                    : Нет
Параметр GMC формата                     : Без точки перехода
Параметр матрицы формата                 : Default (MPEG)
Идентификатор кодека                     : XVID
Идентификатор кодека/Подсказка           : XviD
Продолжительность                        : 42 м.
Битрейт                                  : 1372 Кбит/сек
Ширина                                   : 720 пикселей
Высота                                   : 400 пикселей
Соотношение сторон                       : 16:9
Частота кадров                           : 23,976 кадра/сек
Цветовое пространство                    : YUV
Субдискретизация насыщенности            : 4:2:0
Битовая глубина                          : 8 бит
Тип развёртки                            : Прогрессивная
Метод сжатия                             : С потерями
Бит/(Пиксели*Кадры)                      : 0.199
Размер потока                            : 417 Мбайт (84%)
Библиотека кодирования                   : XviD 64

Аудио #1
Идентификатор                            : 1
Формат                                   : MPEG Audio
Версия формата                           : Version 1
Профиль формата                          : Layer 3
Режим                                    : Joint stereo
Расширение режима                        : MS Stereo
Идентификатор кодека                     : 55
Идентификатор кодека/Подсказка           : MP3
Продолжительность                        : 42 м.
Вид битрейта                             : Постоянный
Битрейт                                  : 128 Кбит/сек
Каналы                                   : 2 канала
Частота                                  : 48,0 КГц
Метод сжатия                             : С потерями
Размер потока                            : 38,9 Мбайт (8%)
Выравнивание                             : Соединение по промежуткам
Продолжительность промежутка             : 42  мс. (1,00 видеокадр)
Время предзагрузки промежутка            : 504  мс.

Аудио #2
Идентификатор                            : 2
Формат                                   : MPEG Audio
Версия формата                           : Version 1
Профиль формата                          : Layer 3
Режим                                    : Joint stereo
Расширение режима                        : MS Stereo
Идентификатор кодека                     : 55
Идентификатор кодека/Подсказка           : MP3
Продолжительность                        : 42 м.
Вид битрейта                             : Постоянный
Битрейт                                  : 128 Кбит/сек
Каналы                                   : 2 канала
Частота                                  : 48,0 КГц
Метод сжатия                             : С потерями
Размер потока                            : 38,9 Мбайт (8%)
Выравнивание                             : Соединение по промежуткам
Продолжительность промежутка             : 42  мс. (1,00 видеокадр)
Время предзагрузки промежутка            : 504  мс.

Релиз группы:

picpicpicpicpic
Для увеличения картинки щелкните мышкой по превью

Этот торрент недоступен для скачивания без регистрации, однако доступен по публичной magnet-ссылке (источники с публичных трекеров). Перед использованием ссылки прочтите, пожалуйста Пользовательское соглашение, а также как можно дольше оставайтесь на раздаче! Для того, чтобы скачать сам торрент-файл (который видит больше источников), а также для того, чтобы поблагодарить релизера, вам необходимо зарегистрироваться. Если регистрироваться лень - вы можете также попробовать скачать релиз по нашим партнерским ссылкам ниже.

[underverse.su].t56917.torrent
Трекер: Зарегистрирован   [ 10.08.2015 19:39 ]  

Статус: проверено (by makkol at 11.08.2015 09:55)
Поблагодарили: пока никто не поблагодарил...
Тип торрента: публичный - доступные источники с открытых трекеров: 
Размер: 9,61 GB (занимает 2,2 DVDR, для записи нужно 3 болванки DVDR/RW)
 
 
Похожие темы
Форум Тема Автор Торрент Отв. Посл. сооб.
Зарубежные сериалы Риццоли и Айлc / Rizzoli & Isles / Сезоны 1-4 (56 серий) (Марк Абер, Стив Робин, Майкл Кэтлман) [2010-2013 г., драма, криминал, детектив, WEB-DLRip] MVO + Original older
0 | 0

0 | 286

0

10.08.2015 19:15

T Зарубежные сериалы Риццоли и Айлc / Rizzoli & Isles / Сезон 6 (1-12 серии) (18) (Марк Абер, Стив Робин, Майкл Кэтлман) [2015 г., драма, криминал, детектив, WEB-DLRip] MVO + Original older
7 | 2

4 | 738

0

09.09.2015 03:45


Яндекс.Метрика powered by Sphinx


В Н И М А Н И Е
Сайт не распространяет и не хранит электронные версии произведений, а лишь бесплатно и без коммерческой выгоды (не требуя взамен платы,
SMS и т.д.) предоставляет доступ к создаваемому пользователями каталогу ссылок на торрент-файлы, которые содержат только списки хеш-сумм.
Убедительная просьба с жалобами обращаться напрямую к пользователю, разместившему торрент файл.

Вверх