Loading...
Error

Риццоли и Айлc / Rizzoli & Isles / Сезоны 1-4 (56 серий) (Марк Абер, Стив Робин, Майкл Кэтлман) [2010-2013 г., драма, криминал, детектив, WEB-DLRip] MVO + Original

Статистика раздачи
Размер:  39,89 GB   |    Зарегистрирован:  1 год 3 месяца   |    Скачан:  0 раз

Полного источника не было: 8 дней

Сидов:  0  |  0 KB/s  ]   Личеров:  0  |  0 KB/s  ]

* - сиды/пиры с внешних источников

   
 
Автор Сообщение

older Пол:Муж

10-Авг-2015 19:15

Риццоли и Айлc / Rizzoli & Isles / Сезоны 1-4 (56 серий)


Год выпуска: 2010-2013
Жанр: драма, криминал, детектив
Страна: США
Режиссер: Марк Абер, Стив Робин, Майкл Кэтлман
В ролях: Энджи Хармон (Detective Rizzoli), Саша Александр (Dr. Maura Isles), Джордан Бриджес (Frankie Rizzoli Jr.), Ли Томпсон Янг (Detective Barry Frost), Брюс МакГилл (Detective Vince Korsak), Лоррейн Бракко (Angela Rizzoli), Брайан Гудман (Lieutenant Sean Cavanaugh), Тина Хуанг (Susie Chang), Колин Эглсфилд (Tommy Rizzoli), Крис Вэнс (Lt. Col. Charles «Casey» Jones), Дэррил Алан Рид (Rondo), Рик Чэмберс (Tom Martin)
Сюжет фильма:
Риццоли и Айлс (англ. Rizzoli&Isles) — американский детективный телесериал, основанный на серии книг Тесс Герритсен. Главные героини — детектив бостонского отдела убийств Джейн Риццоли и патологоанатом Мора Айлс. Премьера состоялась 12 июля 2010 на канале TNT.
Каждая серия представляет собой расследование одного убийства или серии убийств, произошедших в Бостоне. Им занимается Джейн Риццоли, её напарник Барри Фрост и её бывший напарник Винс Корсак. В отличие от прочих детективных сериалов, здесь большое внимание уделяется внерабочей жизни героев, в частности — дружбе между Риццоли и Айлс.

Качество видео: WEB-DLRip

Продолжительность: ~ 00:50:00
Формат: AVI
Видео: XviD, 720х400, 2000 kbps
Аудио #1: русский, многоголосый закадровый [профессиональный] - SET, AC3 2.0, 192 kbps
Аудио #2: английский, оригинал, AC3 2.0, 192 kbps

Код:

Формат                                   : AVI
Формат/Информация                        : Audio Video Interleave
Размер файла                             : 873 Мбайт
Продолжительность                        : 50 м.
Общий поток                              : 2398 Кбит/сек
Программа кодирования                    : VirtualDubMod 1.5.10.2 (build 2540/release)
Библиотека кодирования                   : VirtualDubMod build 2540/release

Видео
Идентификатор                            : 0
Формат                                   : MPEG-4 Visual
Профиль формата                          : Advanced Simple@L5
Параметр BVOP формата                    : 1
Параметр QPel формата                    : Нет
Параметр GMC формата                     : Без точки перехода
Параметр матрицы формата                 : Default (MPEG)
Идентификатор кодека                     : XVID
Идентификатор кодека/Подсказка           : XviD
Продолжительность                        : 50 м.
Битрейт                                  : 2000 Кбит/сек
Ширина                                   : 720 пикселей
Высота                                   : 400 пикселей
Соотношение сторон                       : 16:9
Частота кадров                           : 23,976 кадра/сек
Цветовое пространство                    : YUV
Субдискретизация насыщенности            : 4:2:0
Битовая глубина                          : 8 бит
Тип развёртки                            : Прогрессивная
Метод сжатия                             : С потерями
Бит/(Пиксели*Кадры)                      : 0.290
Размер потока                            : 728 Мбайт (83%)
Библиотека кодирования                   : XviD 65

Аудио #1
Идентификатор                            : 1
Формат                                   : AC-3
Формат/Информация                        : Audio Coding 3
Расширение режима                        : CM (complete main)
Параметр Endianness формата              : Big
Идентификатор кодека                     : 2000
Продолжительность                        : 50 м.
Вид битрейта                             : Постоянный
Битрейт                                  : 192 Кбит/сек
Каналы                                   : 2 канала
Расположение каналов                     : Front: L R
Частота                                  : 48,0 КГц
Битовая глубина                          : 16 бит
Метод сжатия                             : С потерями
Размер потока                            : 69,9 Мбайт (8%)
Выравнивание                             : Разделение по промежуткам
Продолжительность промежутка             : 42  мс. (1,00 видеокадр)
Время предзагрузки промежутка            : 500  мс.

Аудио #2
Идентификатор                            : 2
Формат                                   : AC-3
Формат/Информация                        : Audio Coding 3
Расширение режима                        : CM (complete main)
Параметр Endianness формата              : Big
Идентификатор кодека                     : 2000
Продолжительность                        : 50 м.
Вид битрейта                             : Постоянный
Битрейт                                  : 192 Кбит/сек
Каналы                                   : 2 канала
Расположение каналов                     : Front: L R
Частота                                  : 48,0 КГц
Битовая глубина                          : 16 бит
Метод сжатия                             : С потерями
Размер потока                            : 69,9 Мбайт (8%)
Выравнивание                             : Разделение по промежуткам
Продолжительность промежутка             : 42  мс. (1,00 видеокадр)
Время предзагрузки промежутка            : 500  мс.

Релиз группы:

picpicpicpicpic
Для увеличения картинки щелкните мышкой по превью

Этот торрент недоступен для скачивания без регистрации, однако доступен по публичной magnet-ссылке (источники с публичных трекеров). Перед использованием ссылки прочтите, пожалуйста Пользовательское соглашение, а также как можно дольше оставайтесь на раздаче! Для того, чтобы скачать сам торрент-файл (который видит больше источников), а также для того, чтобы поблагодарить релизера, вам необходимо зарегистрироваться. Если регистрироваться лень - вы можете также попробовать скачать релиз по нашим партнерским ссылкам ниже.

[underverse.su].t56914.torrent
Трекер: Зарегистрирован   [ 10.08.2015 19:15 ]  

Статус: проверено (by makkol at 11.08.2015 09:45)
Поблагодарили: пока никто не поблагодарил...
Тип торрента: публичный - доступные источники с открытых трекеров: 
Размер: 39,89 GB (занимает 9,11 DVDR, для записи нужно 10 болванок DVDR/RW)
 
 
Похожие темы
Форум Тема Автор Торрент Отв. Посл. сооб.
Зарубежные сериалы Риццоли и Айлc / Rizzoli & Isles / Сезон 5 (1-18 серии из 18) (Марк Абер, Стив Робин, Майкл Кэтлман) [2014-2015 г., драма, криминал, детектив, WEB-DLRip] MVO + Original older
6 | 3

0 | 319

2

10.08.2015 19:39

T Зарубежные сериалы Риццоли и Айлc / Rizzoli & Isles / Сезон 6 (1-12 серии) (18) (Марк Абер, Стив Робин, Майкл Кэтлман) [2015 г., драма, криминал, детектив, WEB-DLRip] MVO + Original older
7 | 2

4 | 739

0

09.09.2015 03:45


Яндекс.Метрика powered by Sphinx


В Н И М А Н И Е
Сайт не распространяет и не хранит электронные версии произведений, а лишь бесплатно и без коммерческой выгоды (не требуя взамен платы,
SMS и т.д.) предоставляет доступ к создаваемому пользователями каталогу ссылок на торрент-файлы, которые содержат только списки хеш-сумм.
Убедительная просьба с жалобами обращаться напрямую к пользователю, разместившему торрент файл.

Вверх