Loading...
Error

Чешуйчатый крохаль. Последний герой ледникового периода / Chinese Merganser. Survivor from the Iсe Ages [2011 г., документальный, SatRip] VO

Статистика раздачи
Размер:  498 MB   |    Зарегистрирован:  1 год 3 месяца   |    Скачан:  0 раз

Полного источника не было: Никогда

Сидов:  0  |  0 KB/s  ]   Личеров:  0  |  0 KB/s  ]

* - сиды/пиры с внешних источников

   
 
Автор Сообщение

ARI71 Пол:Муж

10-Авг-2015 15:01

Чешуйчатый крохаль. Последний герой ледникового периода / Chinese Merganser. Survivor from the Iсe Ages


Год выпуска: 2011
Жанр: документальный, фауна
Страна: Китай
Сюжет фильма:
Одна из самых древних разновидностей дикой утки, пережившая третий ледниковый период, чешуйчатый крохаль, сейчас находится под угрозой полного исчезновения. Этот захватывающий и очень красивый документальный фильм рассказывает историю жизни одной влюбленной пары этих перелетных птиц, часть года обитающих в живописных горах на северо-востоке Китая.
Качество видео: SatRip

Продолжительность: 00:48:44
Формат: MKV
Видео: MPEG-4 AVC, 720x400, 1300 kbps
Аудио: русский, одноголосый [профессиональный], AC3 2.0, 48000Hz, 128 kbps

Код:

Format : Matroska
Format version : Version 2
File size : 498 MiB
Duration : 48mn 43s
Overall bit rate : 1 430 Kbps
Encoded date : UTC 2012-11-18 06:35:26
Writing application : mkvmerge v5.8.0 ('No Sleep / Pillow') built on Sep 2 2012 15:37:04
Writing library : libebml v1.2.3 + libmatroska v1.3.0

Video
ID : 1
Format : AVC
Format/Info : Advanced Video Codec
Format profile : High@L4.1
Format settings, CABAC : Yes
Format settings, ReFrames : 8 frames
Codec ID : V_MPEG4/ISO/AVC
Duration : 48mn 43s
Bit rate : 1 300 Kbps
Width : 720 pixels
Height : 400 pixels
Display aspect ratio : 16:9
Frame rate mode : Constant
Frame rate : 25.000 fps
Color space : YUV
Chroma subsampling : 4:2:0
Bit depth : 8 bits
Scan type : Progressive
Bits/(Pixel*Frame) : 0.181
Stream size : 444 MiB (89%)
Writing library : x264 core 125 r2208 d9d2288
Encoding settings : cabac=1 / ref=8 / deblock=1:-1:-1 / analyse=0x3:0x133 / me=umh / subme=9 / psy=1 / psy_rd=1.00:0.10 / mixed_ref=1 / me_range=16 / chroma_me=1 / trellis=2 / 8x8dct=1 / cqm=0 / deadzone=21,11 / fast_pskip=1 / chroma_qp_offset=-3 / threads=12 / lookahead_threads=2 / sliced_threads=0 / nr=0 / decimate=1 / interlaced=0 / bluray_compat=0 / constrained_intra=0 / bframes=3 / b_pyramid=2 / b_adapt=2 / b_bias=0 / direct=3 / weightb=1 / open_gop=0 / weightp=2 / keyint=250 / keyint_min=25 / scenecut=40 / intra_refresh=0 / rc_lookahead=60 / rc=2pass / mbtree=1 / bitrate=1300 / ratetol=1.0 / qcomp=0.75 / qpmin=0 / qpmax=69 / qpstep=4 / cplxblur=20.0 / qblur=0.5 / vbv_maxrate=50000 / vbv_bufsize=50000 / nal_hrd=none / ip_ratio=1.40 / aq=1:1.00
Default : Yes
Forced : No

Audio
ID : 2
Format : AC-3
Format/Info : Audio Coding 3
Mode extension : CM (complete main)
Format settings, Endianness : Big
Codec ID : A_AC3
Duration : 48mn 43s
Bit rate mode : Constant
Bit rate : 128 Kbps
Channel(s) : 2 channels
Channel positions : Front: L R
Sampling rate : 48.0 KHz
Bit depth : 16 bits
Compression mode : Lossy
Stream size : 44.6 MiB (9%)
Default : Yes
Forced : No
picpicpicpic
Для увеличения картинки щелкните мышкой по превью

Этот торрент недоступен для скачивания без регистрации, однако доступен по публичной magnet-ссылке (источники с публичных трекеров). Перед использованием ссылки прочтите, пожалуйста Пользовательское соглашение, а также как можно дольше оставайтесь на раздаче! Для того, чтобы скачать сам торрент-файл (который видит больше источников), а также для того, чтобы поблагодарить релизера, вам необходимо зарегистрироваться. Если регистрироваться лень - вы можете также попробовать скачать релиз по нашим партнерским ссылкам ниже.

[underverse.su].t57444.torrent
Трекер: Зарегистрирован   [ 25.08.2015 06:07 ]  

Статус: проверено (by makkol at 22.10.2015 22:03)
Поблагодарили: пока никто не поблагодарил...
Тип торрента: публичный - доступные источники с открытых трекеров: 
Размер: 498 MB (занимает 0,11 DVDR, для записи нужно 1 болванка DVDR/RW)
 
 


Последний раз редактировалось: ARI71 (25.08.2015 06:07), всего редактировалось 1 раз

makkol Пол:Муж

10-Авг-2015 23:27

Если Вы от себя добавляете к жанрам новые категории, каждую нужно оформлять отдельным тегом. Т.е. не так

Код:

[tag]документальный, фауна[/tag]
а так

Код:

[tag]документальный[/tag], [tag]фауна[/tag]
Я везде исправил, это на будущее.

ARI71 Пол:Муж

11-Авг-2015 17:42

Да, на других трекерах как-то по-проще правила оформления релизов; хотя почему-то ваш ресурс мне в принципе пока импонирует? Наверное общий дизайн привлекает, хотя на соседнем ресурсе пользователи активней скачивают релизы, не забывают благодарить за труд, да и на раздаче после скачивания задерживаются подольше!

Ну ничё будем стараться,... по возможности

Яндекс.Метрика powered by Sphinx


В Н И М А Н И Е
Сайт не распространяет и не хранит электронные версии произведений, а лишь бесплатно и без коммерческой выгоды (не требуя взамен платы,
SMS и т.д.) предоставляет доступ к создаваемому пользователями каталогу ссылок на торрент-файлы, которые содержат только списки хеш-сумм.
Убедительная просьба с жалобами обращаться напрямую к пользователю, разместившему торрент файл.

Вверх