Loading...
Error

Игры разума / Mind Games (Боб Яри) [1989 г., триллер, VHSRip] AVO + Original

Статистика раздачи
Размер:  1,51 GB   |    Зарегистрирован:  1 год 3 месяца   |    Скачан:  1 раз

Полного источника не было: 7 месяцев

Сидов:  0  |  0 KB/s  ]   Личеров:  0  |  0 KB/s  ]

* - сиды/пиры с внешних источников

   
 
Автор Сообщение

makkol Пол:Муж

10-Авг-2015 13:43

Игры разума / Mind Games


Год выпуска: 1989
Жанр: триллер
Производство: США [MTA, Persik Productions]
Режиссер: Боб Яри
В ролях: Максвелл Колфилд, Эдвард Альберт, Шон Уэзерли, Мэтт Нореро
Сюжет фильма:
Брак Даны и Риты Ланд переживает трудные времена. Рите надоело быть просто домохозяйкой. Чтобы спасти семью, они решили отправиться в путешествие по Калифорнии с их сыном Кевином. На привале они познакомились с попутчиком Эриком, который подружился с Кевином. Против воли Риты Дана берет Эрика с ними, не зная что он жестокий психопат и что он заставит мальчика участвовать в своих ночных похождениях...

  • Мировая премьера: 3 марта 1989


Качество видео: VHSRip

Продолжительность: 01:33:45
Формат: AVI
Видео: XviD, 640x480 (4:3), 29.970 fps, 1880 kbps
Аудио #1: русский, авторский одноголосый закадровый (Вячеслав Котов), AC3 2.0, 48 kHz, 192 kbps
Аудио #2: английский, оригинал, MP3 2.0, 44.1 kHz, 192 kbps

Код:

Общее
Полное имя                               : Mind Games (1989).avi
Формат                                   : AVI
Формат/Информация                        : Audio Video Interleave
Размер файла                             : 1,51 Гбайт
Продолжительность                        : 1 ч. 33 м.
Общий поток                              : 2304 Кбит/сек
Программа кодирования                    : VirtualDubMod 1.5.10.2 (build 2540/release)
Библиотека кодирования                   : VirtualDubMod build 2540/release

Видео
Идентификатор                            : 0
Формат                                   : AVC
Формат/Информация                        : Advanced Video Codec
Профиль формата                          : High@L3
Параметр CABAC формата                   : Да
Параметр ReFrames формата                : 4 кадра
Идентификатор кодека                     : H264
Продолжительность                        : 1 ч. 33 м.
Битрейт                                  : 1880 Кбит/сек
Ширина                                   : 640 пикселей
Высота                                   : 480 пикселей
Соотношение сторон                       : 4:3
Частота кадров                           : 29,970 кадров/сек
Цветовое пространство                    : YUV
Субдискретизация насыщенности            : 4:2:0
Битовая глубина                          : 8 бит
Тип развёртки                            : Прогрессивная
Бит/(Пиксели*Кадры)                      : 0.204
Размер потока                            : 1,25 Гбайт (83%)
Библиотека кодирования                   : x264 core 115 r2008bm 4c552d8
Настройки программы                      : cabac=1 / ref=3 / deblock=1:-1:-1 / analyse=0x3:0x113 / me=hex / subme=7 / psy=1 / psy_rd=1.00:0.15 / mixed_ref=1 / me_range=16 / chroma_me=1 / trellis=1 / 8x8dct=1 / cqm=0 / deadzone=21,11 / fast_pskip=1 / chroma_qp_offset=-3 / threads=12 / sliced_threads=0 / nr=0 / decimate=1 / interlaced=0 / bluray_compat=0 / constrained_intra=0 / bframes=3 / b_pyramid=2 / b_adapt=1 / b_bias=0 / direct=1 / weightb=1 / open_gop=0 / weightp=2 / keyint=250 / keyint_min=25 / scenecut=40 / intra_refresh=0 / rc_lookahead=40 / rc=abr / mbtree=1 / bitrate=1880 / ratetol=1.0 / qcomp=0.60 / qpmin=0 / qpmax=69 / qpstep=4 / ip_ratio=1.40 / aq=1:1.00

Аудио #1
Идентификатор                            : 1
Формат                                   : AC-3
Формат/Информация                        : Audio Coding 3
Расширение режима                        : CM (complete main)
Параметр Endianness формата              : Big
Идентификатор кодека                     : 2000
Продолжительность                        : 1 ч. 33 м.
Вид битрейта                             : Постоянный
Битрейт                                  : 192 Кбит/сек
Каналы                                   : 2 канала
Расположение каналов                     : Front: L R
Частота                                  : 48,0 КГц
Метод сжатия                             : С потерями
Размер потока                            : 129 Мбайт (8%)
Выравнивание                             : Разделение по промежуткам
Продолжительность промежутка             : 33  мс. (1,00 видеокадр)
Время предзагрузки промежутка            : 500  мс.

Аудио #2
Идентификатор                            : 2
Формат                                   : MPEG Audio
Версия формата                           : Version 1
Профиль формата                          : Layer 3
Идентификатор кодека                     : 55
Идентификатор кодека/Подсказка           : MP3
Продолжительность                        : 1 ч. 33 м.
Вид битрейта                             : Постоянный
Битрейт                                  : 192 Кбит/сек
Каналы                                   : 2 канала
Частота                                  : 44,1 КГц
Метод сжатия                             : С потерями
Размер потока                            : 129 Мбайт (8%)
Выравнивание                             : Разделение по промежуткам
Продолжительность промежутка             : 33  мс. (1,00 видеокадр)
Время предзагрузки промежутка            : 500  мс.
Библиотека кодирования                   : LAME3.98.4
Сэмпл (в сэмпле только одна аудиодорожка, полноценно вырезать не получилось)

picpicpicpicpic
Для увеличения картинки щелкните мышкой по превью

Этот торрент недоступен для скачивания без регистрации, однако доступен по публичной magnet-ссылке (источники с публичных трекеров). Перед использованием ссылки прочтите, пожалуйста Пользовательское соглашение, а также как можно дольше оставайтесь на раздаче! Для того, чтобы скачать сам торрент-файл (который видит больше источников), а также для того, чтобы поблагодарить релизера, вам необходимо зарегистрироваться. Если регистрироваться лень - вы можете также попробовать скачать релиз по нашим партнерским ссылкам ниже.

[underverse.su].t56911.torrent
Трекер: Зарегистрирован   [ 10.08.2015 13:43 ]  

Статус: проверено (by makkol at 10.08.2015 21:03)
Поблагодарили: пока никто не поблагодарил...
Тип торрента: публичный - доступные источники с открытых трекеров: 
Размер: 1,51 GB (занимает 0,34 DVDR, для записи нужно 1 болванка DVDR/RW)
 
 
Похожие темы
Форум Тема Автор Торрент Отв. Посл. сооб.
* Архив Игры разума / A Beautiful Mind (Рон Ховард) [2001 г., драма, биография, HDTVRip] floatrx

4 | 1032

29.08.2010 23:52


Яндекс.Метрика powered by Sphinx


В Н И М А Н И Е
Сайт не распространяет и не хранит электронные версии произведений, а лишь бесплатно и без коммерческой выгоды (не требуя взамен платы,
SMS и т.д.) предоставляет доступ к создаваемому пользователями каталогу ссылок на торрент-файлы, которые содержат только списки хеш-сумм.
Убедительная просьба с жалобами обращаться напрямую к пользователю, разместившему торрент файл.

Вверх