Loading...
Error

Двенадцатилетние / 12 and Holding / Twelve and Holding (Майкл Куэста) [2005 г., драма, DVDRip-AVC] DVO + Original + Subs (Eng)

Статистика раздачи
Размер:  2,19 GB   |    Зарегистрирован:  1 год 3 месяца   |    Скачан:  3 раза

Полного источника не было: 1 год 1 месяц

Сидов:  0  |  0 KB/s  ]   Личеров:  0  |  0 KB/s  ]

* - сиды/пиры с внешних источников

   
 
Автор Сообщение

makkol Пол:Муж

10-Авг-2015 10:42

Двенадцатилетние / 12 and Holding / Twelve and Holding


Год выпуска: 2005
Жанр: драма
Производство: США [Serenade Films, Canary Films, Echo Lake Entertainment]
Режиссер: Майкл Куэста
В ролях: Джереми Реннер, Конор Донован, Джесси Камачо, Зои Вайзенбаум, Аннабелла Шиорра, Джейн Эткинсон, Лайнас Роуч, Марсия ДеБонис, Том МакГоуэн, Майкл С. Фучс
Сюжет фильма:
Когда у 12-летнего Джейкоба Карджеса погибает брат-близнец, Джейкоб и его лучшие друзья, Мэйли и Леонард, лелеют мстительные планы, как отомстить своим сверстникам, виновным в гибели Руди

  • Мировая премьера: 11 сентября 2005


Качество видео: DVDRip-AVC

Продолжительность: 01:34:35
Формат: MKV
Видео: MPEG-4 AVC, 716x478@849x478, 23.976 fps, 2472 kbps
Аудио #1: русский, профессиональный двухголосый закадровый, AC3 2.0, 48 kHz, 192 kbps
Аудио #2: английский, оригинал, AC3 5.1, 48 kHz, 448 kbps
Аудио #3: английский, комментарии режиссера, AC3 2.0, 48 kHz, 192 kbps
Субтитры: английские вшитые отключаемые

Код:

Общее
Уникальный идентификатор : 174600791819028842790037172129422482306 (0x835AE3AAFC93F0FCA5D4B3032E9D9B82)
Полное имя : 12-Letnie.2005.DVDRip.x264.ac3.mkv
Формат : Matroska
Версия формата : Version 4 / Version 2
Размер файла : 2,19 Гбайт
Продолжительность : 1 ч. 34 м.
Общий поток : 3307 Кбит/сек
Дата кодирования : UTC 2014-06-30 19:41:41
Программа кодирования : mkvmerge v6.5.0 ('Isn't she lovely') built on Oct 20 2013 12:50:05
Библиотека кодирования : libebml v1.3.0 + libmatroska v1.4.1
Обложка : Yes

Видео
Идентификатор : 1
Формат : AVC
Формат/Информация : Advanced Video Codec
Профиль формата : High@L4.0
Параметр CABAC формата : Да
Параметр ReFrames формата : 16 кадров
Идентификатор кодека : V_MPEG4/ISO/AVC
Продолжительность : 1 ч. 34 м.
Битрейт : 2472 Кбит/сек
Ширина : 716 пикселей
Высота : 478 пикселей
Соотношение сторон : 16:9
Соотношение сторон в оригинале : 16:9
Режим частоты кадров : Постоянный
Частота кадров : 23,976 кадра/сек
Цветовое пространство : YUV
Субдискретизация насыщенности : 4:2:0
Битовая глубина : 8 бит
Тип развёртки : Прогрессивная
Бит/(Пиксели*Кадры) : 0.301
Размер потока : 1,59 Гбайт (73%)
Библиотека кодирования : x264 core 142 r2431kMod ac76440
Настройки программы : cabac=1 / ref=16 / deblock=1:-2:-1 / analyse=0x3:0x133 / me=umh / subme=11 / psy=1 / fade_compensate=0.00 / psy_rd=1.10:0.00 / mixed_ref=1 / me_range=32 / chroma_me=1 / trellis=2 / 8x8dct=1 / cqm=0 / deadzone=21,11 / fast_pskip=0 / chroma_qp_offset=-2 / threads=16 / lookahead_threads=3 / sliced_threads=0 / nr=0 / decimate=0 / interlaced=0 / bluray_compat=0 / constrained_intra=0 / fgo=0 / bframes=16 / b_pyramid=2 / b_adapt=2 / b_bias=0 / direct=3 / weightb=1 / open_gop=0 / weightp=2 / keyint=250 / keyint_min=23 / scenecut=40 / intra_refresh=0 / rc=2pass / mbtree=0 / bitrate=2472 / ratetol=1.0 / qcomp=0.60 / qpmin=0 / qpmax=69 / qpstep=4 / cplxblur=20.0 / qblur=0.5 / ip_ratio=1.40 / pb_ratio=1.30 / aq=1:1.00
Язык : English
Default : Да
Forced : Нет
Коэффициенты матрицы : BT.601

Аудио #1
Идентификатор : 2
Формат : AC-3
Формат/Информация : Audio Coding 3
Расширение режима : CM (complete main)
Параметр Endianness формата : Big
Идентификатор кодека : A_AC3
Продолжительность : 1 ч. 34 м.
Вид битрейта : Постоянный
Битрейт : 192 Кбит/сек
Каналы : 2 канала
Расположение каналов : Front: L R
Частота : 48,0 КГц
Битовая глубина : 16 бит
Метод сжатия : С потерями
Размер потока : 130 Мбайт (6%)
Заголовок : dvo
Язык : Russian
Default : Да
Forced : Нет

Аудио #2
Идентификатор : 3
Формат : AC-3
Формат/Информация : Audio Coding 3
Расширение режима : CM (complete main)
Параметр Endianness формата : Big
Идентификатор кодека : A_AC3
Продолжительность : 1 ч. 34 м.
Вид битрейта : Постоянный
Битрейт : 448 Кбит/сек
Каналы : 6 каналов
Расположение каналов : Front: L C R, Side: L R, LFE
Частота : 48,0 КГц
Битовая глубина : 16 бит
Метод сжатия : С потерями
Размер потока : 303 Мбайт (14%)
Заголовок : original
Язык : English
Default : Нет
Forced : Нет

Аудио #3
Идентификатор : 4
Формат : AC-3
Формат/Информация : Audio Coding 3
Профиль формата : Dolby Digital
Расширение режима : CM (complete main)
Параметр Endianness формата : Big
Идентификатор кодека : A_AC3
Продолжительность : 1 ч. 34 м.
Вид битрейта : Постоянный
Битрейт : 192 Кбит/сек
Каналы : 2 канала
Расположение каналов : Front: L R
Частота : 48,0 КГц
Битовая глубина : 16 бит
Метод сжатия : С потерями
Размер потока : 130 Мбайт (6%)
Заголовок : director's commentaries
Язык : English
Default : Нет
Forced : Нет

Текст
Идентификатор : 5
Формат : UTF-8
Идентификатор кодека : S_TEXT/UTF8
Идентификатор кодека/Информация : UTF-8 Plain Text
Язык : English
Default : Нет
Forced : Нет

Меню
00:00:00.000                             : en:Chapter 1
00:04:23.934                             : en:Chapter 2
00:06:15.534                             : en:Chapter 3
00:09:15.134                             : en:Chapter 4
00:16:07.434                             : en:Chapter 5
00:19:35.101                             : en:Chapter 6
00:22:53.668                             : en:Chapter 7
00:24:44.535                             : en:Chapter 8
00:27:22.469                             : en:Chapter 9
00:32:18.469                             : en:Chapter 10
00:40:26.602                             : en:Chapter 11
00:42:04.369                             : en:Chapter 12
00:46:07.702                             : en:Chapter 13
00:53:29.069                             : en:Chapter 14
00:56:16.235                             : en:Chapter 15
01:06:03.969                             : en:Chapter 16
01:08:03.502                             : en:Chapter 17
01:11:20.735                             : en:Chapter 18
01:20:44.001                             : en:Chapter 19
01:28:55.201                             : en:Chapter 20
Релиз группы:

picpicpicpicpic
Для увеличения картинки щелкните мышкой по превью

Этот торрент недоступен для скачивания без регистрации, однако доступен по публичной magnet-ссылке (источники с публичных трекеров). Перед использованием ссылки прочтите, пожалуйста Пользовательское соглашение, а также как можно дольше оставайтесь на раздаче! Для того, чтобы скачать сам торрент-файл (который видит больше источников), а также для того, чтобы поблагодарить релизера, вам необходимо зарегистрироваться. Если регистрироваться лень - вы можете также попробовать скачать релиз по нашим партнерским ссылкам ниже.

[underverse.su].t56907.torrent
Трекер: Зарегистрирован   [ 10.08.2015 10:42 ]  

Статус: проверено (by makkol at 10.08.2015 21:02)
Поблагодарили: пока никто не поблагодарил...
Тип торрента: публичный - доступные источники с открытых трекеров: 
Размер: 2,19 GB (занимает 1/2 DVDR, для записи нужно 1 болванка DVDR/RW)
 
 

Яндекс.Метрика powered by Sphinx


В Н И М А Н И Е
Сайт не распространяет и не хранит электронные версии произведений, а лишь бесплатно и без коммерческой выгоды (не требуя взамен платы,
SMS и т.д.) предоставляет доступ к создаваемому пользователями каталогу ссылок на торрент-файлы, которые содержат только списки хеш-сумм.
Убедительная просьба с жалобами обращаться напрямую к пользователю, разместившему торрент файл.

Вверх