Loading...
Error

Оранжевый - хит сезона / Orange Is the New Black / Сезон 2 (1-13 серии из 13) (Эндрю МакКарти, Майкл Трим, Фил Абрахам) [2014 г., драма, комедия, криминал, WEBRip] MVO + Original

Статистика раздачи
Размер:  9,28 GB   |    Зарегистрирован:  1 год 3 месяца   |    Скачан:  3 раза

Полного источника не было: 3 дня

Сидов:  0  |  0 KB/s  ]   Личеров:  0  |  0 KB/s  ]

* - сиды/пиры с внешних источников

   
 
Автор Сообщение

older Пол:Муж

10-Авг-2015 08:53

Оранжевый - хит сезона / Orange Is the New Black / Сезон 2 (1-13 серии)


Год выпуска: 2014
Жанр: драма, комедия, криминал
Страна: США
Режиссер: Эндрю МакКарти, Майкл Трим, Фил Абрахам
В ролях: Тейлор Шиллинг, Джейсон Биггз, Мишель Хёрст, Кейт Малгрю, Наташа Лионн, Лора Припон, Майкл Харни, Лиа ДеЛария, Тэрин Мэннинг
Сюжет фильма:
Пайпер Чепмен - обычная жительница Коннектикута. Она любит свою благополучную жизнь и все её приятные мелочи. Душ по утрам, красивый завтрак, занятия любовью. Но случается так, что благодаря своему мимолетному увлечению крупным наркоторговцем, Пайпер оказывается заключенной в тюрьму на долгие пятнадцать месяцев. Отныне ей необходимо не только привыкнуть к новому окружению, но и просто - выжить.

Качество видео: WEBRip

Продолжительность: ~ 00:55:00
Формат: AVI
Видео: XviD, 720х400, 1462 kbps
Аудио #1: русский, многоголосый закадровый [профессиональный], MP3 2.0, 128 kbps
Аудио #2: английский, оригинал, MP3 2.0, 128 kbps

Код:

Формат                                   : AVI
Формат/Информация                        : Audio Video Interleave
Размер файла                             : 699 Мбайт
Продолжительность                        : 56 м.
Общий поток                              : 1732 Кбит/сек
Программа кодирования                    : VirtualDubMod 1.5.10.2 (build 2540/release)
Библиотека кодирования                   : VirtualDubMod build 2540/release

Видео
Идентификатор                            : 0
Формат                                   : MPEG-4 Visual
Профиль формата                          : Advanced Simple@L5
Параметр BVOP формата                    : 2
Параметр QPel формата                    : Нет
Параметр GMC формата                     : Без точки перехода
Параметр матрицы формата                 : Default (MPEG)
Идентификатор кодека                     : XVID
Идентификатор кодека/Подсказка           : XviD
Продолжительность                        : 56 м.
Битрейт                                  : 1462 Кбит/сек
Ширина                                   : 720 пикселей
Высота                                   : 400 пикселей
Соотношение сторон                       : 16:9
Частота кадров                           : 23,976 кадра/сек
Цветовое пространство                    : YUV
Субдискретизация насыщенности            : 4:2:0
Битовая глубина                          : 8 бит
Тип развёртки                            : Прогрессивная
Метод сжатия                             : С потерями
Бит/(Пиксели*Кадры)                      : 0.212
Размер потока                            : 590 Мбайт (84%)
Библиотека кодирования                   : XviD 64

Аудио #1
Идентификатор                            : 1
Формат                                   : MPEG Audio
Версия формата                           : Version 1
Профиль формата                          : Layer 3
Режим                                    : Joint stereo
Расширение режима                        : MS Stereo
Идентификатор кодека                     : 55
Идентификатор кодека/Подсказка           : MP3
Продолжительность                        : 56 м.
Вид битрейта                             : Постоянный
Битрейт                                  : 128 Кбит/сек
Каналы                                   : 2 канала
Частота                                  : 48,0 КГц
Метод сжатия                             : С потерями
Размер потока                            : 51,7 Мбайт (7%)
Выравнивание                             : Соединение по промежуткам
Продолжительность промежутка             : 42  мс. (1,00 видеокадр)
Время предзагрузки промежутка            : 504  мс.

Аудио #2
Идентификатор                            : 2
Формат                                   : MPEG Audio
Версия формата                           : Version 1
Профиль формата                          : Layer 3
Режим                                    : Joint stereo
Расширение режима                        : MS Stereo
Идентификатор кодека                     : 55
Идентификатор кодека/Подсказка           : MP3
Продолжительность                        : 56 м.
Вид битрейта                             : Постоянный
Битрейт                                  : 128 Кбит/сек
Каналы                                   : 2 канала
Частота                                  : 48,0 КГц
Метод сжатия                             : С потерями
Размер потока                            : 51,7 Мбайт (7%)
Выравнивание                             : Соединение по промежуткам
Продолжительность промежутка             : 42  мс. (1,00 видеокадр)
Время предзагрузки промежутка            : 504  мс.

Релиз группы:

picpicpicpicpic
Для увеличения картинки щелкните мышкой по превью

Этот торрент недоступен для скачивания без регистрации, однако доступен по публичной magnet-ссылке (источники с публичных трекеров). Перед использованием ссылки прочтите, пожалуйста Пользовательское соглашение, а также как можно дольше оставайтесь на раздаче! Для того, чтобы скачать сам торрент-файл (который видит больше источников), а также для того, чтобы поблагодарить релизера, вам необходимо зарегистрироваться. Если регистрироваться лень - вы можете также попробовать скачать релиз по нашим партнерским ссылкам ниже.

[underverse.su].t56904.torrent
Трекер: Зарегистрирован   [ 10.08.2015 08:53 ]  

Статус: проверено (by makkol at 10.08.2015 10:06)
Поблагодарили: пока никто не поблагодарил...
Тип торрента: публичный - доступные источники с открытых трекеров: 
Размер: 9,28 GB (занимает 2,12 DVDR, для записи нужно 3 болванки DVDR/RW)
 
 
Похожие темы
Форум Тема Автор Торрент Отв. Посл. сооб.
Зарубежные сериалы Оранжевый - хит сезона / Orange Is the New Black / Сезон 1 (1-13 серии из 13) (Эндрю МакКарти, Майкл Трим, Фил Абрахам) [2013 г., драма, комедия, криминал, WEBRip] MVO + Original older
10 | 2

0 | 552

4

10.08.2015 08:27

Зарубежные сериалы Оранжевый - хит сезона / Orange Is the New Black / Сезон 3 (1-13 серии из 13) (Эндрю МакКарти, Майкл Трим, Фил Абрахам) [2015 г., драма, комедия, криминал, WEBRip] MVO + Original older
37 | 10

0 | 756

5

10.08.2015 09:15


Яндекс.Метрика powered by Sphinx


В Н И М А Н И Е
Сайт не распространяет и не хранит электронные версии произведений, а лишь бесплатно и без коммерческой выгоды (не требуя взамен платы,
SMS и т.д.) предоставляет доступ к создаваемому пользователями каталогу ссылок на торрент-файлы, которые содержат только списки хеш-сумм.
Убедительная просьба с жалобами обращаться напрямую к пользователю, разместившему торрент файл.

Вверх