Loading...
Error

Доминион / Dominion / Сезон 1 (1-8 серии) (8) (Алекс Холмс, Рик Джейкобсон, Ларри Шоу) [2014 г., ужасы, фантастика, фэнтези, боевик, драма, WEB-DLRip] MVO

Статистика раздачи
Размер:  3,56 GB   |    Зарегистрирован:  1 год 3 месяца   |    Скачан:  9 раз

Полного источника не было: 3 месяца 2 дня

Сидов:  0  |  0 KB/s  ]   Личеров:  0  |  0 KB/s  ]

* - сиды/пиры с внешних источников

   
 
Автор Сообщение

older Пол:Муж

10-Авг-2015 07:17

Доминион / Dominion / Сезон 1 (1-8 серии)


Год выпуска: 2014
Жанр: ужасы, фантастика, фэнтези, боевик, драма
Страна: США
Режиссер: Алекс Холмс, Рик Джейкобсон, Ларри Шоу
В ролях: Карл Бьюкс, Алан Дэйл, Кристофер Иган, Крис Фишер, Шивани Гаи, Розалинд Халстэд, Энтони Хэд, Антон Дэвид Джефта, Лэнгли Кирквуд, Роксанна МакКи
Сюжет фильма:
Новый сериал Доминион основан на персонажах фильма Легион. Сюжет развернется спустя много лет после действий фильма. В 25 году после нашей эры армия ангелов, возглавляемая архангелом Гавриилом ведет кровопролитную войну против всего человечества. Один лишь архангел Михаил решает принять сторону людей и выступить против себе подобных. После долгих 25 лет сражений, укрепившиеся города защищают оставшихся в живых и держат последнюю линию обороны. Самый большой среди уцелевших городов — Вега (бывший Лас Вегас). Казалось бы, в этой войне люди должны быть сплочены перед лицом врага. Но в Веге ведется постоянное противостояние двух сторон за контроль над городом и готовится государственный переворот. В это же время молодой человек, непокорный солдат, отправляется в путешествие, в ходе которого он делает потрясающее открытие о том, что он, по всей видимости – спаситель человечества.

Качество видео: WEB-DLRip

Продолжительность: 1с - 01:06:00, 2-7с ~ 00:42:00, 8с - 01:01:00
Формат: AVI
Видео: XviD, 720х400, 1328 kbps
Аудио: русский, многоголосый закадровый [профессиональный], MP3 2.0, 192 kbps

Код:

Формат                                   : AVI
Формат/Информация                        : Audio Video Interleave
Размер файла                             : 724 Мбайт
Продолжительность                        : 1 ч. 6 м.
Режим общего битрейта                    : Переменный
Общий поток                              : 1528 Кбит/сек
Программа кодирования                    : Nandub v1.0rc2
Библиотека кодирования                   : Nandub build 1853/release

Видео
Идентификатор                            : 0
Формат                                   : MPEG-4 Visual
Профиль формата                          : Simple@L3
Параметр BVOP формата                    : Нет
Параметр QPel формата                    : Нет
Параметр GMC формата                     : Без точки перехода
Параметр матрицы формата                 : Default (H.263)
Идентификатор кодека                     : XVID
Идентификатор кодека/Подсказка           : XviD
Продолжительность                        : 1 ч. 6 м.
Битрейт                                  : 1328 Кбит/сек
Ширина                                   : 720 пикселей
Высота                                   : 400 пикселей
Соотношение сторон                       : 16:9
Частота кадров                           : 23,976 кадра/сек
Цветовое пространство                    : YUV
Субдискретизация насыщенности            : 4:2:0
Битовая глубина                          : 8 бит
Тип развёртки                            : Прогрессивная
Метод сжатия                             : С потерями
Бит/(Пиксели*Кадры)                      : 0.192
Размер потока                            : 629 Мбайт (87%)
Библиотека кодирования                   : XviD 1.2.1 (UTC 2008-12-04)

Аудио
Идентификатор                            : 1
Формат                                   : MPEG Audio
Версия формата                           : Version 1
Профиль формата                          : Layer 3
Режим                                    : Joint stereo
Расширение режима                        : MS Stereo
Идентификатор кодека                     : 55
Идентификатор кодека/Подсказка           : MP3
Продолжительность                        : 1 ч. 6 м.
Вид битрейта                             : Переменный
Битрейт                                  : 192 Кбит/сек
Каналы                                   : 2 канала
Частота                                  : 48,0 КГц
Метод сжатия                             : С потерями
Размер потока                            : 89,0 Мбайт (12%)
Выравнивание                             : Соединение по промежуткам
Продолжительность промежутка             : 24  мс. (0,58 видеокадр)
Время предзагрузки промежутка            : 490  мс.
Библиотека кодирования                   : LAME3.97b
Настройки программы                      : -m j -V 4 -q 3 -lowpass 18.6 --abr 192

Релиз группы:

picpicpicpicpic
Для увеличения картинки щелкните мышкой по превью

Этот торрент недоступен для скачивания без регистрации, однако доступен по публичной magnet-ссылке (источники с публичных трекеров). Перед использованием ссылки прочтите, пожалуйста Пользовательское соглашение, а также как можно дольше оставайтесь на раздаче! Для того, чтобы скачать сам торрент-файл (который видит больше источников), а также для того, чтобы поблагодарить релизера, вам необходимо зарегистрироваться. Если регистрироваться лень - вы можете также попробовать скачать релиз по нашим партнерским ссылкам ниже.

[underverse.su].t56901.torrent
Трекер: Зарегистрирован   [ 10.08.2015 07:17 ]  

Статус: проверено (by makkol at 10.08.2015 10:00)
Поблагодарили: 1 человек
Тип торрента: публичный - доступные источники с открытых трекеров: 
Размер: 3,56 GB (занимает 0,81 DVDR, для записи нужно 1 болванка DVDR/RW)
 
 
Похожие темы
Форум Тема Автор Торрент Отв. Посл. сооб.
T Зарубежные сериалы Доминион / Dominion / Сезон 2 (1-8 серии из 13) (Алекс Холмс, Рик Джейкобсон, Ларри Шоу) [2015 г., ужасы, фантастика, фэнтези, боевик, драма, WEB-DLRip] MVO (LostFilm) older
0 | 2

4 | 892

3

02.09.2015 10:48

Зарубежные сериалы Доминион / Dominion / Сезон 2 (1-13 серии из 13) (Алекс Холмс, Рик Джейкобсон, Ларри Шоу) [2015 г., ужасы, фантастика, фэнтези, боевик, драма, WEB-DLRip] MVO (NewStudio) + Original older
12 | 4

2 | 795

3

12.10.2015 17:38


Яндекс.Метрика powered by Sphinx


В Н И М А Н И Е
Сайт не распространяет и не хранит электронные версии произведений, а лишь бесплатно и без коммерческой выгоды (не требуя взамен платы,
SMS и т.д.) предоставляет доступ к создаваемому пользователями каталогу ссылок на торрент-файлы, которые содержат только списки хеш-сумм.
Убедительная просьба с жалобами обращаться напрямую к пользователю, разместившему торрент файл.

Вверх