Loading...
Error

Рождение мафии: Нью-Йорк / The Making of the Mob: New York / Сезон 1 (1-7 серии из 7) (Джон Илер) [2015 г., криминальный, драма, документальный, WEB-DLRip] MVO

Статистика раздачи
Размер:  3,74 GB   |    Зарегистрирован:  1 год 4 месяца   |    Скачан:  5 раз

Полного источника не было: 14 дней

Сидов:  0  |  0 KB/s  ]   Личеров:  0  |  0 KB/s  ]

* - сиды/пиры с внешних источников

   
 
Автор Сообщение

older Пол:Муж

10-Авг-2015 06:27

Рождение мафии: Нью-Йорк / The Making of the Mob: New York / Сезон 1 (1-7 серии)


Год выпуска: 2015
Жанр: криминальный, драма, документальный
Страна: США
Режиссер: Джон Илер
В ролях: Рич Графф (Счастливчик Лучано), Йен Белл (Меер Лански), Ивэн Боймел (Луис Бухальтер), Энтони ДиКарло (Фрэнк Костелло), Джонатан Стюарт (Багси Сигел), Крэйг Томас Ривела (Вито Дженовезе)
Сюжет фильма:
«Рождение мафии: Нью-Йорк» — это документально-игровой сериал о криминальной империи знаменитого гангстера Счастливчика Лучано. Он небезосновательно считается отцом современной организованной преступности в Америке. В уникальном проекте телеканала AMC зрителей ждет сочетание актерской реконструкции реальных событий первой половины XX века с документальной хроникой. Кроме того, формат телешоу предполагает наличие увлекательных интервью с историками, журналистами, политиками и звездами знаменитых фильмов и сериалов о мафии. «Рождение мафии» даст возможность проникнуться атмосферой Нью-Йорка начала прошлого века, где нищета соседствовала с роскошью, а кровавые разборки, погони и перестрелки гангстеров считались совершенно обычным делом.

Качество видео: WEB-DLRip

Продолжительность: ~ 00:43:00
Формат: AVI
Видео: XviD, 720х400, 1383 kbps
Аудио: русский, многоголосый закадровый [профессиональный], MP3 2.0, 192 kbps

Код:

Формат                                   : AVI
Формат/Информация                        : Audio Video Interleave
Размер файла                             : 490 Мбайт
Продолжительность                        : 43 м.
Режим общего битрейта                    : Переменный
Общий поток                              : 1584 Кбит/сек
Программа кодирования                    : Nandub v1.0rc2
Библиотека кодирования                   : Nandub build 1853/release

Видео
Идентификатор                            : 0
Формат                                   : MPEG-4 Visual
Профиль формата                          : Advanced Simple@L5
Параметр BVOP формата                    : Нет
Параметр QPel формата                    : Нет
Параметр GMC формата                     : Без точки перехода
Параметр матрицы формата                 : Default (H.263)
Идентификатор кодека                     : XVID
Идентификатор кодека/Подсказка           : XviD
Продолжительность                        : 43 м.
Битрейт                                  : 1383 Кбит/сек
Ширина                                   : 720 пикселей
Высота                                   : 400 пикселей
Соотношение сторон                       : 16:9
Частота кадров                           : 23,976 кадра/сек
Цветовое пространство                    : YUV
Субдискретизация насыщенности            : 4:2:0
Битовая глубина                          : 8 бит
Тип развёртки                            : Прогрессивная
Метод сжатия                             : С потерями
Бит/(Пиксели*Кадры)                      : 0.200
Размер потока                            : 427 Мбайт (87%)
Библиотека кодирования                   : XviD 1.2.1 (UTC 2008-12-04)

Аудио
Идентификатор                            : 1
Формат                                   : MPEG Audio
Версия формата                           : Version 1
Профиль формата                          : Layer 3
Режим                                    : Joint stereo
Расширение режима                        : MS Stereo
Идентификатор кодека                     : 55
Идентификатор кодека/Подсказка           : MP3
Продолжительность                        : 43 м.
Вид битрейта                             : Переменный
Битрейт                                  : 192 Кбит/сек
Каналы                                   : 2 канала
Частота                                  : 48,0 КГц
Метод сжатия                             : С потерями
Размер потока                            : 58,4 Мбайт (12%)
Выравнивание                             : Соединение по промежуткам
Продолжительность промежутка             : 24  мс. (0,58 видеокадр)
Время предзагрузки промежутка            : 480  мс.
Библиотека кодирования                   : LAME3.97b
Настройки программы                      : -m j -V 4 -q 3 -lowpass 18.6 --abr 192

Релиз группы:

picpicpicpicpic
Для увеличения картинки щелкните мышкой по превью

Этот торрент недоступен для скачивания без регистрации, однако доступен по публичной magnet-ссылке (источники с публичных трекеров). Перед использованием ссылки прочтите, пожалуйста Пользовательское соглашение, а также как можно дольше оставайтесь на раздаче! Для того, чтобы скачать сам торрент-файл (который видит больше источников), а также для того, чтобы поблагодарить релизера, вам необходимо зарегистрироваться. Если регистрироваться лень - вы можете также попробовать скачать релиз по нашим партнерским ссылкам ниже.

[underverse.su].t56900.torrent
Трекер: Зарегистрирован   [ 10.08.2015 06:27 ]  

Статус: проверено (by makkol at 10.08.2015 09:54)
Поблагодарили: пока никто не поблагодарил...
Тип торрента: публичный - доступные источники с открытых трекеров: 
Размер: 3,74 GB (занимает 0,85 DVDR, для записи нужно 1 болванка DVDR/RW)
 
 

Яндекс.Метрика powered by Sphinx


В Н И М А Н И Е
Сайт не распространяет и не хранит электронные версии произведений, а лишь бесплатно и без коммерческой выгоды (не требуя взамен платы,
SMS и т.д.) предоставляет доступ к создаваемому пользователями каталогу ссылок на торрент-файлы, которые содержат только списки хеш-сумм.
Убедительная просьба с жалобами обращаться напрямую к пользователю, разместившему торрент файл.

Вверх