Loading...
Error

Жетоны ярости / Bu Er Shen Tan / Badges of Fury (Це Минг Вонг) [2013 г., боевик, комедия, HDRip] MVO

Статистика раздачи
Размер:  1,46 GB   |    Зарегистрирован:  1 год 3 месяца   |    Скачан:  16 раз

Полного источника не было: 5 месяцев 17 дней

Сидов:  0  |  0 KB/s  ]   Личеров:  0  |  0 KB/s  ]

* - сиды/пиры с внешних источников

   
 
Автор Сообщение

makkol Пол:Муж

09-Авг-2015 23:04

Жетоны ярости / Bu Er Shen Tan / Badges of Fury


Год выпуска: 2013
Жанр: боевик, комедия
Производство: Китай [Enlight Pictures, Hong Kong Pictures International]
Режиссер: Це Минг Вонг
В ролях: Джет Ли, Чжан Вэнь, Сесилия Лю, Мишель Чэнь, Янь Лю, Аарон Шанг, Сингх Хартихан Битто, Лик-Сун Фон, Колин Чоу, Стивен Фанг, Грэйс Хуанг, Сяо Мин Хуан, Джеки Ву, Тун Давэй, Кевин Чэн
Сюжет фильма:
Когда через Гонконг проносится волна жутких убийств, дело поручают двум проблемным полицейским. Это молодой баламут Ван и умудрённый опытом Хуан, который по горло сыт безрассудностью младшего напарника, постоянно втягивающего их обоих в неприятности. После того, как выясняется, что все жертвы были бывшими парнями честолюбивой и перспективной молодой актрисы Лю, их расследование заходит в тупик, и детективы должны начать смертельно опасную игру — чтобы выманить убийцу, одному из них придётся выдать себя за возлюбленного Лю.

  • Мировая премьера: 21 июня 2013


Качество видео: HDRip

Продолжительность: 01:37:58
Формат: AVI
Видео: XviD, 720x304 (2.35:1), 24.000 fps, 1929 kbps
Аудио: русский, профессиональный многоголосый закадровый (официальный звук), AC3 2.0, 48 kHz, 192 kbps

Код:

Общее
Полное имя                               : ZhET0NY.jarosti.2013.P.HDRip.avi
Формат                                   : AVI
Формат/Информация                        : Audio Video Interleave
Размер файла                             : 1,46 Гбайт
Продолжительность                        : 1 ч. 37 м.
Общий поток                              : 2131 Кбит/сек
Программа кодирования                    : VirtualDubMod 1.5.10.2 (build 2540/release)
Библиотека кодирования                   : VirtualDubMod build 2540/release

Видео
Идентификатор                            : 0
Формат                                   : MPEG-4 Visual
Профиль формата                          : Advanced Simple@L5
Параметр BVOP формата                    : 2
Параметр QPel формата                    : Нет
Параметр GMC формата                     : Без точки перехода
Параметр матрицы формата                 : Default (MPEG)
Идентификатор кодека                     : XVID
Идентификатор кодека/Подсказка           : XviD
Продолжительность                        : 1 ч. 37 м.
Битрейт                                  : 1929 Кбит/сек
Ширина                                   : 720 пикселей
Высота                                   : 304 пикселя
Соотношение сторон                       : 2,35:1
Частота кадров                           : 24,000 кадра/сек
Цветовое пространство                    : YUV
Субдискретизация насыщенности            : 4:2:0
Битовая глубина                          : 8 бит
Тип развёртки                            : Прогрессивная
Метод сжатия                             : С потерями
Бит/(Пиксели*Кадры)                      : 0.351
Размер потока                            : 1,32 Гбайт (91%)
Библиотека кодирования                   : XviD 1.2.1 (UTC 2008-12-04)

Аудио
Идентификатор                            : 1
Формат                                   : AC-3
Формат/Информация                        : Audio Coding 3
Расширение режима                        : CM (complete main)
Параметр Endianness формата              : Big
Идентификатор кодека                     : 2000
Продолжительность                        : 1 ч. 37 м.
Вид битрейта                             : Постоянный
Битрейт                                  : 192 Кбит/сек
Каналы                                   : 2 канала
Расположение каналов                     : Front: L R
Частота                                  : 48,0 КГц
Метод сжатия                             : С потерями
Размер потока                            : 135 Мбайт (9%)
Выравнивание                             : Разделение по промежуткам
picpicpicpicpic
Для увеличения картинки щелкните мышкой по превью

Этот торрент недоступен для скачивания без регистрации, однако доступен по публичной magnet-ссылке (источники с публичных трекеров). Перед использованием ссылки прочтите, пожалуйста Пользовательское соглашение, а также как можно дольше оставайтесь на раздаче! Для того, чтобы скачать сам торрент-файл (который видит больше источников), а также для того, чтобы поблагодарить релизера, вам необходимо зарегистрироваться. Если регистрироваться лень - вы можете также попробовать скачать релиз по нашим партнерским ссылкам ниже.

[underverse.su].t56895.torrent
Трекер: Зарегистрирован   [ 09.08.2015 23:04 ]  

Статус: проверено (by makkol at 10.08.2015 09:36)
Поблагодарили: 2 человека
Тип торрента: публичный - доступные источники с открытых трекеров: 
Размер: 1,46 GB (занимает 1/3 DVDR, для записи нужно 1 болванка DVDR/RW)
 
 
Похожие темы
Форум Тема Автор Торрент Отв. Посл. сооб.
Зарубежное кино [DVDRip, Low-Res HDRip, и т.д.] Жетоны ярости / Badges of Fury / Bu Er Shen Tan (Це Минг Вонг) [2013 г., боевик, комедия, HDRip] VO Паукан
1 | 0

0 | 832

29

29.08.2013 07:32

Зарубежное кино [DVDRip, Low-Res HDRip, и т.д.] Жетоны ярости / Badges of Fury / Bu Er Shen Tan (Це Минг Вонг / Tsz Ming Wong) [2013 г., боевик, комедия, HDRip] VO (Ворон) 90ytr90
22 | 0

0 | 604

10

30.11.2014 11:49

Зарубежное кино [HDDVDRip / BDRip / WEB-DL / HDTV 1080/720р] Жетоны ярости / Bu Er Shen Tan / Badges of Fury (Це Минг Вонг) [2013 г., боевик, комедия, BDRip 720p] MVO + Original makkol
0 | 0

0 | 459

2

09.08.2015 23:21

Зарубежное кино [HDDVDRip / BDRip / WEB-DL / HDTV 1080/720р] Жетоны ярости / Bu Er Shen Tan / Badges of Fury (Це Минг Вонг) [2013 г., боевик, комедия, BDRip 1080p] MVO + Original makkol
1 | 0

0 | 479

3

09.08.2015 23:38


Яндекс.Метрика powered by Sphinx


В Н И М А Н И Е
Сайт не распространяет и не хранит электронные версии произведений, а лишь бесплатно и без коммерческой выгоды (не требуя взамен платы,
SMS и т.д.) предоставляет доступ к создаваемому пользователями каталогу ссылок на торрент-файлы, которые содержат только списки хеш-сумм.
Убедительная просьба с жалобами обращаться напрямую к пользователю, разместившему торрент файл.

Вверх