Loading...
Error

Грейсленд / Graceland / Сезон 3 (1-13 серии из 13) (Рассел Ли Файн, Сэнфорд Букставер, Ренни Харлин) [2015 г., боевик, драма, криминал, WEB-DLRip] MVO + Original

Статистика раздачи
Размер:  6,98 GB   |    Зарегистрирован:  1 год 3 месяца   |    Скачан:  2 раза

Полного источника не было: 1 год 3 месяца

Сидов:  0  |  0 KB/s  ]   Личеров:  0  |  0 KB/s  ]

* - сиды/пиры с внешних источников

   
 
Автор Сообщение

older Пол:Муж

09-Авг-2015 16:48

Грейсленд / Graceland / Сезон 3


Год выпуска: 2015
Жанр: боевик, драма, криминал
Страна: США
Режиссер: Рассел Ли Файн, Сэнфорд Букставер, Ренни Харлин
В ролях: Дэниэл Санжата, Аарон Твейт, Ванесса Ферлито, Мэнни Монтана, Брэндон Джей МакЛарен, Серинда Свон, Стивен Л. Коэн, Педро Бальмаседа, Дженн Проске, Том Стэдхем, Энтони Омари Никерсон, Артуро Фернандез, Роберт Шлегель, Джино Венто, Скотти Томпсон, Ксавьер Бурбано, Рауль Колон, Рэнди Гонзалез, Индра Патель, Рэхим Бабалола, Бен Клеверо, Джозеф Джамброне
Сюжет фильма:
Сериал от создателей "Белого воротничка" - "Graceland".

Сотрудников наркоконтроля, ФБР и таможенной службы собирают в одном доме, который получил название "Грейсленд", для работы под прикрытием. Молодой агент Майк Уоррен, поступает под руководство более опытного коллеги агента Пола Бриггса, который готов приплатить Майку, лишь бы тот сбежал.

Качество видео: WEB-DLRip

Продолжительность: ~ 00:42:00
Формат: AVI
Видео: XviD, 720х400, 1553 kbps
Аудио #1: русский, многоголосый закадровый [профессиональный], MP3 2.0, 128 kbps
Аудио #2: английский, оригинал, MP3 2.0, 128 kbps

Код:

Формат                                   : AVI
Формат/Информация                        : Audio Video Interleave
Размер файла                             : 550 Мбайт
Продолжительность                        : 42 м.
Общий поток                              : 1823 Кбит/сек
Программа кодирования                    : VirtualDubMod 1.5.10.2 (build 2540/release)
Библиотека кодирования                   : VirtualDubMod build 2540/release

Видео
Идентификатор                            : 0
Формат                                   : MPEG-4 Visual
Профиль формата                          : Advanced Simple@L5
Параметр BVOP формата                    : 2
Параметр QPel формата                    : Нет
Параметр GMC формата                     : Без точки перехода
Параметр матрицы формата                 : Default (MPEG)
Идентификатор кодека                     : XVID
Идентификатор кодека/Подсказка           : XviD
Продолжительность                        : 42 м.
Битрейт                                  : 1553 Кбит/сек
Ширина                                   : 720 пикселей
Высота                                   : 400 пикселей
Соотношение сторон                       : 16:9
Частота кадров                           : 23,976 кадра/сек
Цветовое пространство                    : YUV
Субдискретизация насыщенности            : 4:2:0
Битовая глубина                          : 8 бит
Тип развёртки                            : Прогрессивная
Метод сжатия                             : С потерями
Бит/(Пиксели*Кадры)                      : 0.225
Размер потока                            : 469 Мбайт (85%)
Библиотека кодирования                   : XviD 73

Аудио #1
Идентификатор                            : 1
Формат                                   : MPEG Audio
Версия формата                           : Version 1
Профиль формата                          : Layer 3
Режим                                    : Joint stereo
Расширение режима                        : MS Stereo
Идентификатор кодека                     : 55
Идентификатор кодека/Подсказка           : MP3
Продолжительность                        : 42 м.
Вид битрейта                             : Постоянный
Битрейт                                  : 128 Кбит/сек
Каналы                                   : 2 канала
Частота                                  : 48,0 КГц
Метод сжатия                             : С потерями
Размер потока                            : 38,6 Мбайт (7%)
Выравнивание                             : Соединение по промежуткам
Продолжительность промежутка             : 42  мс. (1,00 видеокадр)
Время предзагрузки промежутка            : 504  мс.
Библиотека кодирования                   : LAME3.99r
Настройки программы                      : -m j -V 4 -q 2 -lowpass 17 -b 128

Аудио #2
Идентификатор                            : 2
Формат                                   : MPEG Audio
Версия формата                           : Version 1
Профиль формата                          : Layer 3
Режим                                    : Joint stereo
Расширение режима                        : MS Stereo
Идентификатор кодека                     : 55
Идентификатор кодека/Подсказка           : MP3
Продолжительность                        : 42 м.
Вид битрейта                             : Постоянный
Битрейт                                  : 128 Кбит/сек
Каналы                                   : 2 канала
Частота                                  : 48,0 КГц
Метод сжатия                             : С потерями
Размер потока                            : 38,6 Мбайт (7%)
Выравнивание                             : Соединение по промежуткам
Продолжительность промежутка             : 42  мс. (1,00 видеокадр)
Время предзагрузки промежутка            : 504  мс.
Библиотека кодирования                   : LAME3.99r
Настройки программы                      : -m j -V 4 -q 2 -lowpass 17 -b 128

Внимание! Раздача ведётся путём добавления новых серий
При каждом добавлении создаётся новый торрент. Чтобы начать докачку новой серии, пользователям необходимо сделать следующее:
1. Остановить скачивание,
2. Удалить старый торрент у себя из клиента (старые серии удалять не надо),
3. Скачать новый торрент и запустить его у себя в клиенте вместо старого, при этом указать клиенту путь в старую папку куда и должно происходить скачивание новых серий.
Ваш клиент при этом должен произвести хеширование (проверку) старой папки (если не производит сам - помогите ему сделать это), и будет докачивать только те серии которых у вас ещё нет. Старые серии при этом не удаляются, а продолжают раздаваться!
Если вы уже удалили старые серии, то предотвратить повторную закачку старых серий можно, отжав галочку в соответствующих местах при запуске нового торрента.
Релиз группы:

picpicpicpicpic
Для увеличения картинки щелкните мышкой по превью

Этот торрент недоступен для скачивания без регистрации, однако доступен по публичной magnet-ссылке (источники с публичных трекеров). Перед использованием ссылки прочтите, пожалуйста Пользовательское соглашение, а также как можно дольше оставайтесь на раздаче! Для того, чтобы скачать сам торрент-файл (который видит больше источников), а также для того, чтобы поблагодарить релизера, вам необходимо зарегистрироваться. Если регистрироваться лень - вы можете также попробовать скачать релиз по нашим партнерским ссылкам ниже.

[underverse.su].t56861.torrent
Трекер: Зарегистрирован   [ 25.09.2015 07:07 ]  

Статус: проверено (by makkol at 25.09.2015 10:50)
Поблагодарили: пока никто не поблагодарил...
Тип торрента: публичный - доступные источники с открытых трекеров: 
Размер: 6,98 GB (занимает 1,59 DVDR, для записи нужно 2 болванки DVDR/RW)
 
 
Похожие темы
Форум Тема Автор Торрент Отв. Посл. сооб.
Зарубежные сериалы Грейсленд / Graceland / Сезон 1 / Серии 1-12 (12) (Ренни Харлин) [2013 г., боевик, драма, криминал, WEB-DLRip] MVO + Original Чертёнок
2 | 2

0 | 1271

12

17.09.2013 14:24

Зарубежные сериалы Грейсленд / Graceland / Сезон 2 (1-13 серии из 13) (Рассел Ли Файн, Сэнфорд Букставер, Ренни Харлин) [2014 г., боевик, драма, криминал, WEB-DLRip] MVO + Original older
5 | 2

0 | 241

4

09.08.2015 16:05

Зарубежные сериалы [BD / Remux / BDRip / WEB-DL / HDTV 1080/720р] Грейсленд / Graceland / Сезон 1 / 1-12 серии (12) (Ренни Харлин) [2013., боевик, драма, WEB-DL 1080p | NewStudio] MVO + Original bezug22
0 | 0

1 | 690

0

20.09.2013 10:07



Последний раз редактировалось: older (12.10.2015 17:32), всего редактировалось 7 раз(а)

older Пол:Муж

17-Авг-2015 07:36

17.08.15. Раздача обновлена!
Добавлена 8 серия.
Перекачайте торрент файл!

older Пол:Муж

23-Авг-2015 10:50

23.08.15. Раздача обновлена!
Добавлена 9 серия.
Перекачайте торрент файл!

older Пол:Муж

01-Сен-2015 03:58

01.09.15. Раздача обновлена!
Добавлена 10 серия.
Перекачайте торрент файл!

older Пол:Муж

09-Сен-2015 12:22

09.09.15. Раздача обновлена!
Добавлена 11 серия.
Перекачайте торрент файл!

older Пол:Муж

14-Сен-2015 08:06

14.09.15. Раздача обновлена!
Добавлена 12 серия.
Перекачайте торрент файл!

older Пол:Муж

25-Сен-2015 07:07

25.09.15. Раздача обновлена!
Добавлена 8, последняя серия. Сезон представлен полностью.
Перекачайте торрент файл!

Яндекс.Метрика powered by Sphinx


В Н И М А Н И Е
Сайт не распространяет и не хранит электронные версии произведений, а лишь бесплатно и без коммерческой выгоды (не требуя взамен платы,
SMS и т.д.) предоставляет доступ к создаваемому пользователями каталогу ссылок на торрент-файлы, которые содержат только списки хеш-сумм.
Убедительная просьба с жалобами обращаться напрямую к пользователю, разместившему торрент файл.

Вверх