Loading...
Error

Ад на колёсах / Hell on Wheels / Сезон 2 (1-10 серии из 10) (Дэвид Фон Энкен, Адам Дэвидсон, Дэвид Стрейтон) [2012 г., драма, вестерн, WEB-DLRip] MVO

Статистика раздачи
Размер:  5,18 GB   |    Зарегистрирован:  1 год 3 месяца   |    Скачан:  4 раза

Полного источника не было: 25 дней

Сидов:  0  |  0 KB/s  ]   Личеров:  0  |  0 KB/s  ]

* - сиды/пиры с внешних источников

   
 
Автор Сообщение

older Пол:Муж

09-Авг-2015 09:25

Ад на колёсах / Hell on Wheels / Сезон 2 (1-10 серии)


Год выпуска: 2012
Жанр: драма, вестерн
Страна: Канада , Великобритания
Режиссер: Дэвид Фон Энкен, Адам Дэвидсон, Дэвид Стрейтон
В ролях: Джералд Огер, Джулиан Шамп, Фил Бурк, Коммон, Бен Эслер, Тед Левайн, Доминик МакЭллигот, Колм Мини, Энсон Маунт, Эдди Спирс
Сюжет фильма:
В центре сюжета вестерна — бывший солдат Конфедерации Каллен Боханнан, решительно намеренный отомстить за изнасилование и смерть своей любимой жены, выследив и убив солдат Союза, которые сделали это. В итоге он оказывается в Небраске, на одном из участков строительства трансконтинентальной железной дороги.

Качество видео: WEB-DLRip

Продолжительность: ~ 00:43:00
Формат: AVI
Видео: XviD, 720х400, 1732 kbps
Аудио: русский, многоголосый закадровый [профессиональный], MP3 2.0, 128 kbps

Код:

Формат                                   : AVI
Формат/Информация                        : Audio Video Interleave
Размер файла                             : 577 Мбайт
Продолжительность                        : 43 м.
Общий поток                              : 1873 Кбит/сек
Программа кодирования                    : Nandub v1.0rc2
Библиотека кодирования                   : Nandub build 1853/release

Видео
Идентификатор                            : 0
Формат                                   : MPEG-4 Visual
Профиль формата                          : Simple@L3
Параметр BVOP формата                    : Нет
Параметр QPel формата                    : Нет
Параметр GMC формата                     : Без точки перехода
Параметр матрицы формата                 : Default (H.263)
Идентификатор кодека                     : XVID
Идентификатор кодека/Подсказка           : XviD
Продолжительность                        : 43 м.
Битрейт                                  : 1732 Кбит/сек
Ширина                                   : 720 пикселей
Высота                                   : 400 пикселей
Соотношение сторон                       : 16:9
Частота кадров                           : 23,976 кадра/сек
Цветовое пространство                    : YUV
Субдискретизация насыщенности            : 4:2:0
Битовая глубина                          : 8 бит
Тип развёртки                            : Прогрессивная
Метод сжатия                             : С потерями
Бит/(Пиксели*Кадры)                      : 0.251
Размер потока                            : 534 Мбайт (92%)
Библиотека кодирования                   : XviD 1.2.1 (UTC 2008-12-04)

Аудио
Идентификатор                            : 1
Формат                                   : MPEG Audio
Версия формата                           : Version 1
Профиль формата                          : Layer 3
Режим                                    : Joint stereo
Расширение режима                        : MS Stereo
Идентификатор кодека                     : 55
Идентификатор кодека/Подсказка           : MP3
Продолжительность                        : 43 м.
Вид битрейта                             : Постоянный
Битрейт                                  : 128 Кбит/сек
Каналы                                   : 2 канала
Частота                                  : 48,0 КГц
Метод сжатия                             : С потерями
Размер потока                            : 39,5 Мбайт (7%)
Выравнивание                             : Соединение по промежуткам
Продолжительность промежутка             : 24  мс. (0,58 видеокадр)
Время предзагрузки промежутка            : 480  мс.

picpicpicpicpic
Для увеличения картинки щелкните мышкой по превью


Этот торрент недоступен для скачивания без регистрации, однако доступен по публичной magnet-ссылке (источники с публичных трекеров). Перед использованием ссылки прочтите, пожалуйста Пользовательское соглашение, а также как можно дольше оставайтесь на раздаче! Для того, чтобы скачать сам торрент-файл (который видит больше источников), а также для того, чтобы поблагодарить релизера, вам необходимо зарегистрироваться. Если регистрироваться лень - вы можете также попробовать скачать релиз по нашим партнерским ссылкам ниже.

[underverse.su].t56808.torrent
Трекер: Зарегистрирован   [ 09.08.2015 14:30 ]  

Статус: проверено (by makkol at 09.08.2015 14:48)
Поблагодарили: пока никто не поблагодарил...
Тип торрента: публичный - доступные источники с открытых трекеров: 
Размер: 5,18 GB (занимает 1,18 DVDR, для записи нужно 2 болванки DVDR/RW)
 
 
Похожие темы
Форум Тема Автор Торрент Отв. Посл. сооб.
T Зарубежные сериалы Ад на колёсах / Hell on Wheels / Сезон 5 (1-7 серии из 13) (Дэвид Фон Энкен, Адам Дэвидсон, Дэвид Стрейтон) [2015 г., драма, вестерн, WEB-DLRip] MVO older
4 | 0

3 | 1478

4

25.09.2015 07:03

Зарубежные сериалы Ад на колёсах / Hell on Wheels / Сезон 1 (1-10 серии из 10) (Дэвид Фон Энкен, Адам Дэвидсон, Дэвид Стрейтон) [2011 г., драма, вестерн, WEB-DLRip] MVO older
5 | 0

0 | 530

5

09.08.2015 08:49

Зарубежные сериалы Ад на колёсах / Hell on Wheels / Сезон 3 (1-10 серии из 10) (Дэвид Фон Энкен, Адам Дэвидсон, Дэвид Стрейтон) [2013 г., драма, вестерн, WEB-DLRip] MVO older
3 | 1

0 | 488

5

09.08.2015 09:44

Зарубежные сериалы Ад на колёсах / Hell on Wheels / Сезон 4 (1-13 серии из 13) (Дэвид Фон Энкен, Адам Дэвидсон, Дэвид Стрейтон) [2014 г., драма, вестерн, WEB-DLRip] MVO older
3 | 1

0 | 368

5

09.08.2015 09:58



Последний раз редактировалось: older (12.08.2015 07:09), всего редактировалось 6 раз(а)

makkol Пол:Муж

09-Авг-2015 12:57

Оформлено правильно, но почему тип торрента - приватный. Вы же вроде мультитрекерные раздачи делаете? Сиды отсутствуют.

kardinal-nk Пол:Муж

11-Авг-2015 22:30

очень весело сидера нет :evil:

older Пол:Муж

11-Авг-2015 22:39

Сидов больше 20. Вы качать не пробовали?

kardinal-nk Пол:Муж

12-Авг-2015 10:12

older писал(а):

Сидов больше 20. Вы качать не пробовали?
Статистика раздачи
Размер: 5,18 GB | Зарегистрирован: 2 дня 19 часов | Скачан: 0 раз
Полного источника не было: Никогда

Сидов: [ 0 + 0* | 0 KB/s ] Личеров: [ 0 + 0* | 0 KB/s ] :)

older Пол:Муж

12-Авг-2015 11:20

Еще раз повторяю! Сидов там достаточно! Скачайте торрент файл и запустите его!
FAQ:Как качать через торрент?

vvmalysh Пол:Муж

12-Авг-2015 20:30

Цитата:

Статистика раздачи
Размер: 5,18 GB | Зарегистрирован: 2 дня 19 часов | Скачан: 0 раз
Полного источника не было: Никогда

Сидов: [ 0 + 0* | 0 KB/s ] Личеров: [ 0 + 0* | 0 KB/s ]
kardinal-nk
Ставим файл на скачивание и смотрим :wink:
pic
Для увеличения картинки щелкните мышкой по превью
Отсутствие статистики еще не значит отутствие возможности скачать файл!

kardinal-nk Пол:Муж

17-Авг-2015 15:58

всем спасибо за внимание - всё получилось, перекачал торрент поехало , видать скачался файл кривво :(

Яндекс.Метрика powered by Sphinx


В Н И М А Н И Е
Сайт не распространяет и не хранит электронные версии произведений, а лишь бесплатно и без коммерческой выгоды (не требуя взамен платы,
SMS и т.д.) предоставляет доступ к создаваемому пользователями каталогу ссылок на торрент-файлы, которые содержат только списки хеш-сумм.
Убедительная просьба с жалобами обращаться напрямую к пользователю, разместившему торрент файл.

Вверх