Loading...
Error

На грани / The Brink / Сезон 1 (1-10 серии из 10) (Майкл Леманн, Джеймс М. Муро, Джон Полл) [2015 г., комедия, HDTVRip] MVO + Original

Статистика раздачи
Размер:  3,35 GB   |    Зарегистрирован:  1 год 3 месяца   |    Скачан:  10 раз
Сидов:  1  |  0 KB/s  ]   Личеров:  0  |  0 KB/s  ]

* - сиды/пиры с внешних источников

   
 
Автор Сообщение

older Пол:Муж

09-Авг-2015 07:57

На грани / The Brink / Сезон 1 (1-10 серии)


Год выпуска: 2015
Жанр: комедия
Страна: США
Режиссер: Майкл Леманн, Джеймс М. Муро, Джон Полл
В ролях: Тим Роббинс, Джек Блэк, Маус Джексон, Эрик Ладин, Эсай Моралес, Пабло Шрайбер, Икбал Теба, Мелани Каннокада, Марк Пэрриш, Бернард Уайт
Сюжет фильма:
«На грани» (The Brink) – актуальная, как никогда, политическая сатира с Джэком Блэком и Тимом Робинсом. Угроза Третьей Мировой Войны нависла над планетой со стороны Пакистана. Военные готовы решить вопрос силой, но политики настаивают на мирном урегулировании конфликта. Ядерная война или дружеские объятия? Кто бы ни победил в этом противостоянии, главное – не терять чувства юмора. Сериал-передышка для всех фанатов «Родины» и «Карточного домика».

Качество видео: HDTVRip

Продолжительность: ~ 00:33:00
Формат: AVI
Видео: XviD, 720х400, 1155 kbps
Аудио #1: русский, многоголосый закадровый [профессиональный], MP3 2.0, 128 kbps
Аудио #2: английский, оригинал, MP3 2.0, 128 kbps
Примечание: рекламный ролик удален

Код:

Формат                                   : AVI
Формат/Информация                        : Audio Video Interleave
Размер файла                             : 345 Мбайт
Продолжительность                        : 33 м.
Общий поток                              : 1425 Кбит/сек
Программа кодирования                    : VirtualDubMod 1.5.10.3 | www.virtualdub-fr.org || (build 2550/release)
Библиотека кодирования                   : VirtualDubMod build 2550/release

Видео
Идентификатор                            : 0
Формат                                   : MPEG-4 Visual
Профиль формата                          : Advanced Simple@L5
Параметр BVOP формата                    : 2
Параметр QPel формата                    : Нет
Параметр GMC формата                     : Без точки перехода
Параметр матрицы формата                 : Default (MPEG)
Идентификатор кодека                     : XVID
Идентификатор кодека/Подсказка           : XviD
Продолжительность                        : 33 м.
Битрейт                                  : 1155 Кбит/сек
Ширина                                   : 720 пикселей
Высота                                   : 400 пикселей
Соотношение сторон                       : 16:9
Частота кадров                           : 23,976 кадра/сек
Цветовое пространство                    : YUV
Субдискретизация насыщенности            : 4:2:0
Битовая глубина                          : 8 бит
Тип развёртки                            : Прогрессивная
Метод сжатия                             : С потерями
Бит/(Пиксели*Кадры)                      : 0.167
Размер потока                            : 279 Мбайт (81%)
Библиотека кодирования                   : XviD 73

Аудио #1
Идентификатор                            : 1
Формат                                   : MPEG Audio
Версия формата                           : Version 1
Профиль формата                          : Layer 3
Режим                                    : Joint stereo
Расширение режима                        : MS Stereo
Идентификатор кодека                     : 55
Идентификатор кодека/Подсказка           : MP3
Продолжительность                        : 33 м.
Вид битрейта                             : Постоянный
Битрейт                                  : 128 Кбит/сек
Каналы                                   : 2 канала
Частота                                  : 48,0 КГц
Метод сжатия                             : С потерями
Размер потока                            : 31,0 Мбайт (9%)
Выравнивание                             : Соединение по промежуткам
Продолжительность промежутка             : 42  мс. (1,00 видеокадр)
Время предзагрузки промежутка            : 504  мс.

Аудио #2
Идентификатор                            : 2
Формат                                   : MPEG Audio
Версия формата                           : Version 1
Профиль формата                          : Layer 3
Режим                                    : Joint stereo
Расширение режима                        : MS Stereo
Идентификатор кодека                     : 55
Идентификатор кодека/Подсказка           : MP3
Продолжительность                        : 33 м.
Вид битрейта                             : Постоянный
Битрейт                                  : 128 Кбит/сек
Каналы                                   : 2 канала
Частота                                  : 48,0 КГц
Метод сжатия                             : С потерями
Размер потока                            : 31,0 Мбайт (9%)
Выравнивание                             : Соединение по промежуткам
Продолжительность промежутка             : 42  мс. (1,00 видеокадр)
Время предзагрузки промежутка            : 504  мс.

Внимание! Раздача ведётся путём добавления новых серий
При каждом добавлении создаётся новый торрент. Чтобы начать докачку новой серии, пользователям необходимо сделать следующее:
1. Остановить скачивание,
2. Удалить старый торрент у себя из клиента (старые серии удалять не надо),
3. Скачать новый торрент и запустить его у себя в клиенте вместо старого, при этом указать клиенту путь в старую папку куда и должно происходить скачивание новых серий.
Ваш клиент при этом должен произвести хеширование (проверку) старой папки (если не производит сам - помогите ему сделать это), и будет докачивать только те серии которых у вас ещё нет. Старые серии при этом не удаляются, а продолжают раздаваться!
Если вы уже удалили старые серии, то предотвратить повторную закачку старых серий можно, отжав галочку в соответствующих местах при запуске нового торрента.
Релиз группы:


picpicpicpicpic
Для увеличения картинки щелкните мышкой по превью

Этот торрент недоступен для скачивания без регистрации, однако доступен по публичной magnet-ссылке (источники с публичных трекеров). Перед использованием ссылки прочтите, пожалуйста Пользовательское соглашение, а также как можно дольше оставайтесь на раздаче! Для того, чтобы скачать сам торрент-файл (который видит больше источников), а также для того, чтобы поблагодарить релизера, вам необходимо зарегистрироваться. Если регистрироваться лень - вы можете также попробовать скачать релиз по нашим партнерским ссылкам ниже.

[underverse.su].t56804.torrent
Трекер: Зарегистрирован   [ 27.08.2015 08:00 ]  

Статус: проверено (by makkol at 27.08.2015 10:51)
Поблагодарили: пока никто не поблагодарил...
Тип торрента: публичный - доступные источники с открытых трекеров: 
Размер: 3,35 GB (занимает 0,76 DVDR, для записи нужно 1 болванка DVDR/RW)
 
 
Похожие темы
Форум Тема Автор Торрент Отв. Посл. сооб.
Зарубежное кино [DVDRip, Low-Res HDRip, и т.д.] На грани / Man on a Ledge (Асгер Лет) [2012 г., триллер, криминал, DVDRip] [Лицензия] 90ytr90
2 | 3

7 | 1443

121

06.08.2012 10:16

Зарубежное кино [DVDRip, Low-Res HDRip, и т.д.] На грани / Man on a Ledge (Асгер Лет / Asger Leth) [2012 г., боевик, триллер, криминал, HDRip] AVO (А.Гаврилов) 90ytr90
7 | 0

0 | 890

9

17.03.2013 14:42

T Зарубежное кино [DVDRip, Low-Res HDRip, и т.д.] На грани / Lev staerkt (Кристиан Е. Кристиансен / Christian E. Christiansen) [2014 г., драма, WEB-DLRip] MVO Паукан
4 | 0

0 | 567

11

15.09.2014 09:28

Зарубежное кино [DVDRip, Low-Res HDRip, и т.д.] На грани / Lev sterkt (Кристиан Е. Кристиансен) [2014 г., Драма, BDRip-AVC] MVO (RUS) Ведьмочка
3 | 1

0 | 852

15

25.12.2014 22:37

Зарубежное кино HQ На грани / Man on a Ledge (Асгер Лет) [2012 г., триллер, криминал, HDRip] (Rus, Eng) HQ Underverse HQ Underverse
0 | 0

1 | 778

35

14.05.2012 02:18

Зарубежное кино [HDDVDRip / BDRip / WEB-DL / HDTV 1080/720р] На грани / Man on a Ledge (Асгер Лет) [2012 г., Боевик, Триллер, Криминал, BDRip 720p] Dub (Rus) + Subs (Rus, Eng) Ведьмочка
3 | 0

0 | 751

12

21.07.2014 13:55



Последний раз редактировалось: older (01.09.2015 03:52), всего редактировалось 4 раз(а)

older Пол:Муж

12-Авг-2015 23:06

13.08.15. Раздача обновлена!
Добавлена 8 серия.
Перекачайте торрент файл!

older Пол:Муж

21-Авг-2015 08:46

21.08.15. Раздача обновлена!
Добавлена 9 серия.
Перекачайте торрент файл!

older Пол:Муж

27-Авг-2015 08:00

27.08.15. Раздача обновлена!
Добавлена 10, последняя серия. Сезон представлен полностью.
Перекачайте торрент файл!

Яндекс.Метрика powered by Sphinx


В Н И М А Н И Е
Сайт не распространяет и не хранит электронные версии произведений, а лишь бесплатно и без коммерческой выгоды (не требуя взамен платы,
SMS и т.д.) предоставляет доступ к создаваемому пользователями каталогу ссылок на торрент-файлы, которые содержат только списки хеш-сумм.
Убедительная просьба с жалобами обращаться напрямую к пользователю, разместившему торрент файл.

Вверх