Loading...
Error

Германия 83 / Deutschland 83 / Сезон 1 (1-8 серии) (8) (Эдвард Бергер, Samira Radsi) [2015 г., драма, WEB-DLRip] MVO + Original

Статистика раздачи
Размер:  4,43 GB   |    Зарегистрирован:  1 год 3 месяца   |    Скачан:  11 раз

Полного источника не было: 2 месяца 3 дня

Сидов:  0  |  0 KB/s  ]   Личеров:  0  |  0 KB/s  ]

* - сиды/пиры с внешних источников

   
 
Автор Сообщение

older Пол:Муж

09-Авг-2015 06:19

Германия 83 / Deutschland 83 / Сезон 1 (1-8 серии)


Год выпуска: 2015
Жанр: драма
Страна: Германия
Режиссер: Эдвард Бергер, Samira Radsi
В ролях: Александр Байер, Соня Герхардт, Сильвестр Грот, Йонас Нэй, Ульрих Нётен, Мария Шрадер, Людвиг Трепте, Лиза Томашевски, Годехард Гизе, Уве Пройсс
Сюжет фильма:
Восточная Германия в боевой готовности. Ожидается ввод американского вооружения в Западную Германию. Выходца из ГДР, 24-летнего Мартина Роха, вербуют в агенты штази (управление разведки и контрразведки) и отправляют в ФРГ, где он поступает на военную службу, чтобы передавать информацию о действиях войск НАТО. Парень попадает в новый мир, в котором наряду с тайнами и интригами он сталкивается с невиданными ранее чудесами цивилизации.

Качество видео: WEB-DLRip

Продолжительность: ~ 00:47:00
Формат: AVI
Видео: XviD, 720х400, 1394 kbps
Аудио #1: русский, многоголосый закадровый [профессиональный], MP3 2.0, 128 kbps
Аудио #2: немецкий, оригинал, MP3 2.0, 128 kbps

Код:



Формат                                   : AVI
Формат/Информация                        : Audio Video Interleave
Размер файла                             : 563 Мбайт
Продолжительность                        : 47 м.
Общий поток                              : 1665 Кбит/сек
Название фильма                          : Deutschland 83 1x01 @ AlexFilm
Программа кодирования                    : VirtualDubMod 1.5.10.2 (build 2540/release)
Библиотека кодирования                   : VirtualDubMod build 2540/release

Видео
Идентификатор                            : 0
Формат                                   : MPEG-4 Visual
Профиль формата                          : Advanced Simple@L5
Параметр BVOP формата                    : Нет
Параметр QPel формата                    : Нет
Параметр GMC формата                     : Без точки перехода
Параметр матрицы формата                 : Default (H.263)
Идентификатор кодека                     : XVID
Идентификатор кодека/Подсказка           : XviD
Продолжительность                        : 47 м.
Битрейт                                  : 1394 Кбит/сек
Ширина                                   : 720 пикселей
Высота                                   : 400 пикселей
Соотношение сторон                       : 16:9
Частота кадров                           : 25,000 кадров/сек
Цветовое пространство                    : YUV
Субдискретизация насыщенности            : 4:2:0
Битовая глубина                          : 8 бит
Тип развёртки                            : Прогрессивная
Метод сжатия                             : С потерями
Бит/(Пиксели*Кадры)                      : 0.194
Размер потока                            : 471 Мбайт (84%)
Библиотека кодирования                   : XviD 73

Аудио #1
Идентификатор                            : 1
Формат                                   : MPEG Audio
Версия формата                           : Version 1
Профиль формата                          : Layer 3
Режим                                    : Joint stereo
Расширение режима                        : MS Stereo
Идентификатор кодека                     : 55
Идентификатор кодека/Подсказка           : MP3
Продолжительность                        : 47 м.
Вид битрейта                             : Постоянный
Битрейт                                  : 128 Кбит/сек
Каналы                                   : 2 канала
Частота                                  : 48,0 КГц
Метод сжатия                             : С потерями
Размер потока                            : 43,3 Мбайт (8%)
Выравнивание                             : Соединение по промежуткам
Продолжительность промежутка             : 40  мс. (1,00 видеокадр)
Время предзагрузки промежутка            : 504  мс.
Заголовок                                : Russian (AlexFilm)
Библиотека кодирования                   : LAME3.99r
Настройки программы                      : -m j -V 4 -q 3 -lowpass 18 -b 128

Аудио #2
Идентификатор                            : 2
Формат                                   : MPEG Audio
Версия формата                           : Version 1
Профиль формата                          : Layer 3
Режим                                    : Joint stereo
Расширение режима                        : MS Stereo
Идентификатор кодека                     : 55
Идентификатор кодека/Подсказка           : MP3
Продолжительность                        : 47 м.
Вид битрейта                             : Постоянный
Битрейт                                  : 128 Кбит/сек
Каналы                                   : 2 канала
Частота                                  : 48,0 КГц
Метод сжатия                             : С потерями
Размер потока                            : 43,3 Мбайт (8%)
Выравнивание                             : Соединение по промежуткам
Продолжительность промежутка             : 40  мс. (1,00 видеокадр)
Время предзагрузки промежутка            : 504  мс.
Заголовок                                : Deutsch
Библиотека кодирования                   : LAME3.90.3

Внимание! Раздача ведётся путём добавления новых серий
При каждом добавлении создаётся новый торрент. Чтобы начать докачку новой серии, пользователям необходимо сделать следующее:
1. Остановить скачивание,
2. Удалить старый торрент у себя из клиента (старые серии удалять не надо),
3. Скачать новый торрент и запустить его у себя в клиенте вместо старого, при этом указать клиенту путь в старую папку куда и должно происходить скачивание новых серий.
Ваш клиент при этом должен произвести хеширование (проверку) старой папки (если не производит сам - помогите ему сделать это), и будет докачивать только те серии которых у вас ещё нет. Старые серии при этом не удаляются, а продолжают раздаваться!
Если вы уже удалили старые серии, то предотвратить повторную закачку старых серий можно, отжав галочку в соответствующих местах при запуске нового торрента.
Семпл:

Релиз группы:

picpicpicpicpic
Для увеличения картинки щелкните мышкой по превью

Этот торрент недоступен для скачивания без регистрации, однако доступен по публичной magnet-ссылке (источники с публичных трекеров). Перед использованием ссылки прочтите, пожалуйста Пользовательское соглашение, а также как можно дольше оставайтесь на раздаче! Для того, чтобы скачать сам торрент-файл (который видит больше источников), а также для того, чтобы поблагодарить релизера, вам необходимо зарегистрироваться. Если регистрироваться лень - вы можете также попробовать скачать релиз по нашим партнерским ссылкам ниже.

[underverse.su].t56802.torrent
Трекер: Зарегистрирован   [ 13.08.2015 10:57 ]  

Статус: проверено (by makkol at 13.08.2015 12:41)
Поблагодарили: 1 человек
Тип торрента: публичный - доступные источники с открытых трекеров: 
Размер: 4,43 GB (занимает 1,01 DVDR, для записи нужно 2 болванки DVDR/RW)
 
 


Последний раз редактировалось: older (16.08.2015 05:42), всего редактировалось 4 раз(а)

older Пол:Муж

13-Авг-2015 10:57

13.08.15. Раздача обновлена!
Добавлена 8, последняя серия. Сезон представлен полностью.
Перекачайте торрент файл!

Яндекс.Метрика powered by Sphinx


В Н И М А Н И Е
Сайт не распространяет и не хранит электронные версии произведений, а лишь бесплатно и без коммерческой выгоды (не требуя взамен платы,
SMS и т.д.) предоставляет доступ к создаваемому пользователями каталогу ссылок на торрент-файлы, которые содержат только списки хеш-сумм.
Убедительная просьба с жалобами обращаться напрямую к пользователю, разместившему торрент файл.

Вверх