Loading...
Error

Шёпот / The Whispers / Сезон 1 (1-11 серии из 13) (Чарльз Бисон, П.Дж. Пеше, Брэд Тернер) [2015 г., фантастика, драма, детектив, WEB-DLRip] MVO (LostFilm)

Статистика раздачи
Размер:  4,76 GB   |    Зарегистрирован:  1 год 3 месяца   |    Скачан:  3 раза

Полного источника не было: 10 месяцев

Сидов:  0  |  0 KB/s  ]   Личеров:  0  |  0 KB/s  ]

* - сиды/пиры с внешних источников

   
 
Автор Сообщение

older Пол:Муж

08-Авг-2015 22:25

Шёпот / The Whispers / Сезон 1 (1-11 серии)


Год выпуска: 2015
Жанр: фантастика, драма, детектив
Страна: США
Режиссер: Чарльз Бисон, П.Дж. Пеше, Брэд Тернер
В ролях: Тейт Бёрчмор, Бэрри Слоун, Лили Рэйб, Кайли Роджерс, Кайл Харрисон Брейткопф, Дэвид Эндрюс, Эбби Райдер Фортсон, Джеймисон Джонс, Майло Вентимилья
Сюжет фильма:
В центре сюжета находится агент ФБР Клэр Бенниган, расследующая дело шестилетней девочки, которая чуть не убила свою мать, в ходе чего история приобретает неожиданный поворот — Клэр узнает о существовании неведомой силы, манипулирующей детьми…

Качество видео: WEB-DLRip

Продолжительность: ~ 00:42:00
Формат: AVI
Видео: XviD, 720х400, 1515 kbps
Аудио: русский, многоголосый закадровый [профессиональный], MP3 2.0, 192 kbps

Код:



Формат                                   : AVI
Формат/Информация                        : Audio Video Interleave
Размер файла                             : 518 Мбайт
Продолжительность                        : 42 м.
Режим общего битрейта                    : Переменный
Общий поток                              : 1716 Кбит/сек
Программа кодирования                    : Nandub v1.0rc2
Библиотека кодирования                   : Nandub build 1853/release

Видео
Идентификатор                            : 0
Формат                                   : MPEG-4 Visual
Профиль формата                          : Advanced Simple@L5
Параметр BVOP формата                    : Нет
Параметр QPel формата                    : Нет
Параметр GMC формата                     : Без точки перехода
Параметр матрицы формата                 : Default (H.263)
Идентификатор кодека                     : XVID
Идентификатор кодека/Подсказка           : XviD
Продолжительность                        : 42 м.
Битрейт                                  : 1515 Кбит/сек
Ширина                                   : 720 пикселей
Высота                                   : 400 пикселей
Соотношение сторон                       : 16:9
Частота кадров                           : 23,976 кадра/сек
Цветовое пространство                    : YUV
Субдискретизация насыщенности            : 4:2:0
Битовая глубина                          : 8 бит
Тип развёртки                            : Прогрессивная
Метод сжатия                             : С потерями
Бит/(Пиксели*Кадры)                      : 0.219
Размер потока                            : 457 Мбайт (88%)
Библиотека кодирования                   : XviD 1.2.1 (UTC 2008-12-04)

Аудио
Идентификатор                            : 1
Формат                                   : MPEG Audio
Версия формата                           : Version 1
Профиль формата                          : Layer 3
Режим                                    : Joint stereo
Расширение режима                        : MS Stereo
Идентификатор кодека                     : 55
Идентификатор кодека/Подсказка           : MP3
Продолжительность                        : 42 м.
Вид битрейта                             : Переменный
Битрейт                                  : 192 Кбит/сек
Каналы                                   : 2 канала
Частота                                  : 48,0 КГц
Метод сжатия                             : С потерями
Размер потока                            : 56,8 Мбайт (11%)
Выравнивание                             : Соединение по промежуткам
Продолжительность промежутка             : 24  мс. (0,58 видеокадр)
Время предзагрузки промежутка            : 485  мс.
Библиотека кодирования                   : LAME3.97b
Настройки программы                      : -m j -V 4 -q 3 -lowpass 18.6 --abr 192

Внимание! Раздача ведётся путём добавления новых серий
При каждом добавлении создаётся новый торрент. Чтобы начать докачку новой серии, пользователям необходимо сделать следующее:
1. Остановить скачивание,
2. Удалить старый торрент у себя из клиента (старые серии удалять не надо),
3. Скачать новый торрент и запустить его у себя в клиенте вместо старого, при этом указать клиенту путь в старую папку куда и должно происходить скачивание новых серий.
Ваш клиент при этом должен произвести хеширование (проверку) старой папки (если не производит сам - помогите ему сделать это), и будет докачивать только те серии которых у вас ещё нет. Старые серии при этом не удаляются, а продолжают раздаваться!
Если вы уже удалили старые серии, то предотвратить повторную закачку старых серий можно, отжав галочку в соответствующих местах при запуске нового торрента.
Релиз группы:

picpicpicpicpic
Для увеличения картинки щелкните мышкой по превью


20.08.15. Раздача обновлена!
Добавлена 10-11 серия.
Перекачайте торрент файл!

Этот торрент недоступен для скачивания без регистрации, однако доступен по публичной magnet-ссылке (источники с публичных трекеров). Перед использованием ссылки прочтите, пожалуйста Пользовательское соглашение, а также как можно дольше оставайтесь на раздаче! Для того, чтобы скачать сам торрент-файл (который видит больше источников), а также для того, чтобы поблагодарить релизера, вам необходимо зарегистрироваться. Если регистрироваться лень - вы можете также попробовать скачать релиз по нашим партнерским ссылкам ниже.

[underverse.su].t56796.torrent
Трекер: Зарегистрирован   [ 20.08.2015 09:06 ]  

Статус: T временная (by makkol at 20.08.2015 14:25)
Поблагодарили: 1 человек
Тип торрента: публичный - доступные источники с открытых трекеров: 
Размер: 4,76 GB (занимает 1,09 DVDR, для записи нужно 2 болванки DVDR/RW)
 
 
Похожие темы
Форум Тема Автор Торрент Отв. Посл. сооб.
Зарубежные сериалы Шёпот / The Whispers / Сезон 1 (1-13 серии из 13) (Чарльз Бисон, П.Дж. Пеше, Брэд Тернер) [2015 г., фантастика, драма, детектив, WEB-DLRip] MVO (NewStudio) + Original older
2 | 0

1 | 11657

6

07.09.2015 11:58

Зарубежные сериалы [BD / Remux / BDRip / WEB-DL / HDTV 1080/720р] Шёпот / The Whispers (Сезон 1, серии 1-13 из 13) (Чарльз Бисон, П.Дж. Пеше, Холли Дэйл) [2015 г., фантастика, драма, WEB-DL 720p] MVO (LostFilm) K7SoLoN
0 | 0

1 | 11849

1

07.09.2015 12:00



Последний раз редактировалось: older (07.09.2015 11:15), всего редактировалось 4 раз(а)

older Пол:Муж

20-Авг-2015 09:06

20.08.15. Раздача обновлена!
Добавлена 10-11 серия.
Перекачайте торрент файл!

Яндекс.Метрика powered by Sphinx


В Н И М А Н И Е
Сайт не распространяет и не хранит электронные версии произведений, а лишь бесплатно и без коммерческой выгоды (не требуя взамен платы,
SMS и т.д.) предоставляет доступ к создаваемому пользователями каталогу ссылок на торрент-файлы, которые содержат только списки хеш-сумм.
Убедительная просьба с жалобами обращаться напрямую к пользователю, разместившему торрент файл.

Вверх