Loading...
Error

Тёмная материя / Dark Matter / Сезон 1 (1-13 серии из 13) (Энди Микита, Рон Мерфи, Т.Дж. Скотт) [2015 г., фантастика, триллер, драма, WEB-DLRip] MVO

Статистика раздачи
Размер:  4,61 GB   |    Зарегистрирован:  1 год 2 месяца   |    Скачан:  13 раз
Сидов:  1  |  0 KB/s  ]   Личеров:  0  |  0 KB/s  ]

* - сиды/пиры с внешних источников

   
 
Автор Сообщение

older Пол:Муж

08-Авг-2015 21:58

Тёмная материя / Dark Matter / Сезон 1 (1-13 серии)


Год выпуска: 2015
Жанр: фантастика, триллер, драма
Страна: Канада
Режиссер: Энди Микита, Рон Мерфи, Т.Дж. Скотт
В ролях: Марк Бендавид, Мелисса О’Нил, Энтони Лемке, Алекс Маллари мл., Джоделль Ферланд, Роджер Р. Кросс, Зои Палмер, Дэвид Хьюлетт, Джессика Сайпос, Расселл Юэнь
Сюжет фильма:
Экипаж заброшенного космического корабля пробуждается от анабиоза, без воспоминаний о том, кто они и как они поднялись на борт. Сталкиваясь с угрозами на каждом шагу, они должны работать вместе, чтобы выжить. Их путешествие наполнено местью, предательством и скрытыми тайнами.

Качество видео: WEB-DLRip

Продолжительность: ~ 00:43:00
Формат: AVI
Видео: XviD, 720х400, 930 kbps
Аудио: русский, многоголосый закадровый [профессиональный], MP3 2.0, 192 kbps

Код:



Формат                                   : AVI
Формат/Информация                        : Audio Video Interleave
Размер файла                             : 350 Мбайт
Продолжительность                        : 43 м.
Режим общего битрейта                    : Переменный
Общий поток                              : 1131 Кбит/сек
Программа кодирования                    : Nandub v1.0rc2
Библиотека кодирования                   : Nandub build 1853/release

Видео
Идентификатор                            : 0
Формат                                   : MPEG-4 Visual
Профиль формата                          : Advanced Simple@L5
Параметр BVOP формата                    : Нет
Параметр QPel формата                    : Нет
Параметр GMC формата                     : Без точки перехода
Параметр матрицы формата                 : Default (H.263)
Идентификатор кодека                     : XVID
Идентификатор кодека/Подсказка           : XviD
Продолжительность                        : 43 м.
Битрейт                                  : 930 Кбит/сек
Ширина                                   : 720 пикселей
Высота                                   : 400 пикселей
Соотношение сторон                       : 16:9
Частота кадров                           : 23,976 кадра/сек
Цветовое пространство                    : YUV
Субдискретизация насыщенности            : 4:2:0
Битовая глубина                          : 8 бит
Тип развёртки                            : Прогрессивная
Метод сжатия                             : С потерями
Бит/(Пиксели*Кадры)                      : 0.135
Размер потока                            : 288 Мбайт (82%)
Библиотека кодирования                   : XviD 1.2.1 (UTC 2008-12-04)

Аудио
Идентификатор                            : 1
Формат                                   : MPEG Audio
Версия формата                           : Version 1
Профиль формата                          : Layer 3
Режим                                    : Joint stereo
Расширение режима                        : MS Stereo
Идентификатор кодека                     : 55
Идентификатор кодека/Подсказка           : MP3
Продолжительность                        : 43 м.
Вид битрейта                             : Переменный
Битрейт                                  : 192 Кбит/сек
Каналы                                   : 2 канала
Частота                                  : 48,0 КГц
Метод сжатия                             : С потерями
Размер потока                            : 58,3 Мбайт (17%)
Выравнивание                             : Соединение по промежуткам
Продолжительность промежутка             : 24  мс. (0,58 видеокадр)
Время предзагрузки промежутка            : 476  мс.
Библиотека кодирования                   : LAME3.97b
Настройки программы                      : -m j -V 4 -q 3 -lowpass 18.6 --abr 192

Внимание! Раздача ведётся путём добавления новых серий
При каждом добавлении создаётся новый торрент. Чтобы начать докачку новой серии, пользователям необходимо сделать следующее:
1. Остановить скачивание,
2. Удалить старый торрент у себя из клиента (старые серии удалять не надо),
3. Скачать новый торрент и запустить его у себя в клиенте вместо старого, при этом указать клиенту путь в старую папку куда и должно происходить скачивание новых серий.
Ваш клиент при этом должен произвести хеширование (проверку) старой папки (если не производит сам - помогите ему сделать это), и будет докачивать только те серии которых у вас ещё нет. Старые серии при этом не удаляются, а продолжают раздаваться!
Если вы уже удалили старые серии, то предотвратить повторную закачку старых серий можно, отжав галочку в соответствующих местах при запуске нового торрента.
Релиз группы:

picpicpicpicpic
Для увеличения картинки щелкните мышкой по превью

Этот торрент недоступен для скачивания без регистрации, однако доступен по публичной magnet-ссылке (источники с публичных трекеров). Перед использованием ссылки прочтите, пожалуйста Пользовательское соглашение, а также как можно дольше оставайтесь на раздаче! Для того, чтобы скачать сам торрент-файл (который видит больше источников), а также для того, чтобы поблагодарить релизера, вам необходимо зарегистрироваться. Если регистрироваться лень - вы можете также попробовать скачать релиз по нашим партнерским ссылкам ниже.

[underverse.su].t56795.torrent
Трекер: Зарегистрирован   [ 07.09.2015 05:27 ]  

Статус: проверено (by makkol at 07.09.2015 11:31)
Поблагодарили: 3 человека
Тип торрента: публичный - доступные источники с открытых трекеров: 
Размер: 4,61 GB (занимает 1,05 DVDR, для записи нужно 2 болванки DVDR/RW)
 
 
Похожие темы
Форум Тема Автор Торрент Отв. Посл. сооб.
Зарубежные сериалы Тёмная материя / Dark Matter / Сезон 2 (01-13 серии из 13) (Энди Микита, Рон Мерфи, Т.Дж. Скотт) [2016 г., фантастика, WEB-DLRip] MVO (BaibaKo) + Original (Eng) 90ytr90
18 | 12

0 | 673

8

13.09.2016 13:10

Зарубежные сериалы Тёмная материя / Dark Matter / Сезон 1 (01-13 серии из 13) (Энди Микита, Рон Мерфи, Т.Дж. Скотт) [2015 г., фантастика, WEB-DLRip] MVO (BaibaKo) + Original (Eng) 90ytr90
23 | 14

1 | 467

8

19.09.2016 18:01



Последний раз редактировалось: older (10.09.2015 10:38), всего редактировалось 4 раз(а)

older Пол:Муж

10-Авг-2015 18:20

10.08.15. Раздача обновлена!
Добавлена 9 серия.
Перекачайте торрент файл!

older Пол:Муж

18-Авг-2015 02:26

18.08.15. Раздача обновлена!
Добавлена 10 серия.
Перекачайте торрент файл!

older Пол:Муж

07-Сен-2015 05:28

07.09.15. Раздача обновлена!
Добавлены 11-13, последние серии. Сезон представлен полностью.
Перекачайте торрент файл!

Яндекс.Метрика powered by Sphinx


В Н И М А Н И Е
Сайт не распространяет и не хранит электронные версии произведений, а лишь бесплатно и без коммерческой выгоды (не требуя взамен платы,
SMS и т.д.) предоставляет доступ к создаваемому пользователями каталогу ссылок на торрент-файлы, которые содержат только списки хеш-сумм.
Убедительная просьба с жалобами обращаться напрямую к пользователю, разместившему торрент файл.

Вверх