Loading...
Error

Ганнибал / Hannibal / Сезон 3 (1-13 серии из 13) (Майкл Раймер, Гильермо Наварро, Винченцо Натали) [2015 г., детектив, триллер, криминал, драма, WEB-DLRip] DVO + Original

Статистика раздачи
Размер:  7,65 GB   |    Зарегистрирован:  1 год 3 месяца   |    Скачан:  10 раз

Полного источника не было: 1 день 15 часов

Сидов:  0  |  0 KB/s  ]   Личеров:  0  |  0 KB/s  ]

* - сиды/пиры с внешних источников

   
 
Автор Сообщение

older Пол:Муж

08-Авг-2015 21:35

Ганнибал / Hannibal / Сезон 3 (1-13 серии)


Год выпуска: 2015
Жанр: детектив, триллер, криминал, драма
Страна: США
Режиссер: Майкл Раймер, Гильермо Наварро, Винченцо Натали
В ролях: Мадс Миккельсен, Хью Дэнси, Каролин Давернас, Лара Жан Чоростецки, Аарон Абрамс, Лоренс Фишбёрн, Эттьенн Парк, Скотт Томпсон, Торианна Ли, Демор Барнс
Сюжет фильма:
Сериал «Ганнибал» основан на истории одного из самых загадочных и скандальных героев книг Томаса Харриса – доктора Ганнибала Лектера. Этот стилизованный триллер рассказывает о развитии взаимоотношений Лектера и сотрудника ФБР Уилла Грэма, двух гениальных личностей: игры разумов добра и зла, мощи ментального воздействия против уникального таланта эмпатии. Уилл Грэм — одаренный профайлер, который вместе с ФБР разыскивает серийного убийцу. Уникальный способ мышления Грэма дает ему удивительную способность глубоко проникаться чувствами другого человека, даже психопата. Он может понять, что ими движет. Но когда ум преследуемого убийцы оказывается слишком сложным, он прибегает к помощи доктора Лектера, одного из ведущих психиатрических умов в стране. Кинематографичные съемки и неординарная фантазия создателей позволили любителям жанра по достоинству оценить сериал. Первые два сезона вошли в многочисленные Top-10 по всему миру: лучшие сериалы, лучшие ТВ-шоу, лучший актерский состав и др., транслировались на телеканалах в 80 странах, на 18 языках мира, их посмотрели несколько десятков миллионов зрителей

Качество видео: WEB-DLRip

Продолжительность: ~ 00:43:00
Формат: AVI
Видео: XviD, 720х400, 1496 kbps
Аудио #1: русский, двухголосый закадровый [профессиональный], MP3 2.0, 128 kbps
Аудио #2: английский, оригинал, MP3 2.0, 128 kbps

Код:



Формат                                   : AVI
Формат/Информация                        : Audio Video Interleave
Размер файла                             : 550 Мбайт
Продолжительность                        : 43 м.
Общий поток                              : 1766 Кбит/сек
Программа кодирования                    : VirtualDubMod 1.5.10.2 (build 2540/release)
Библиотека кодирования                   : VirtualDubMod build 2540/release

Видео
Идентификатор                            : 0
Формат                                   : MPEG-4 Visual
Профиль формата                          : Advanced Simple@L5
Параметр BVOP формата                    : Нет
Параметр QPel формата                    : Нет
Параметр GMC формата                     : Без точки перехода
Параметр матрицы формата                 : Default (H.263)
Идентификатор кодека                     : XVID
Идентификатор кодека/Подсказка           : XviD
Продолжительность                        : 43 м.
Битрейт                                  : 1496 Кбит/сек
Ширина                                   : 720 пикселей
Высота                                   : 400 пикселей
Соотношение сторон                       : 16:9
Частота кадров                           : 23,976 кадра/сек
Цветовое пространство                    : YUV
Субдискретизация насыщенности            : 4:2:0
Битовая глубина                          : 8 бит
Тип развёртки                            : Прогрессивная
Метод сжатия                             : С потерями
Бит/(Пиксели*Кадры)                      : 0.217
Размер потока                            : 466 Мбайт (85%)
Библиотека кодирования                   : XviD 73

Аудио #1
Идентификатор                            : 1
Формат                                   : MPEG Audio
Версия формата                           : Version 1
Профиль формата                          : Layer 3
Режим                                    : Joint stereo
Расширение режима                        : MS Stereo
Идентификатор кодека                     : 55
Идентификатор кодека/Подсказка           : MP3
Продолжительность                        : 43 м.
Вид битрейта                             : Постоянный
Битрейт                                  : 128 Кбит/сек
Каналы                                   : 2 канала
Частота                                  : 48,0 КГц
Метод сжатия                             : С потерями
Размер потока                            : 39,9 Мбайт (7%)
Выравнивание                             : Соединение по промежуткам
Продолжительность промежутка             : 42  мс. (1,00 видеокадр)
Время предзагрузки промежутка            : 504  мс.

Аудио #2
Идентификатор                            : 2
Формат                                   : MPEG Audio
Версия формата                           : Version 1
Профиль формата                          : Layer 3
Режим                                    : Joint stereo
Расширение режима                        : MS Stereo
Идентификатор кодека                     : 55
Идентификатор кодека/Подсказка           : MP3
Продолжительность                        : 43 м.
Вид битрейта                             : Постоянный
Битрейт                                  : 128 Кбит/сек
Каналы                                   : 2 канала
Частота                                  : 48,0 КГц
Метод сжатия                             : С потерями
Размер потока                            : 39,9 Мбайт (7%)
Выравнивание                             : Соединение по промежуткам
Продолжительность промежутка             : 42  мс. (1,00 видеокадр)
Время предзагрузки промежутка            : 504  мс.
Библиотека кодирования                   : LAME3.90.3

Внимание! Раздача ведётся путём добавления новых серий
При каждом добавлении создаётся новый торрент. Чтобы начать докачку новой серии, пользователям необходимо сделать следующее:
1. Остановить скачивание,
2. Удалить старый торрент у себя из клиента (старые серии удалять не надо),
3. Скачать новый торрент и запустить его у себя в клиенте вместо старого, при этом указать клиенту путь в старую папку куда и должно происходить скачивание новых серий.
Ваш клиент при этом должен произвести хеширование (проверку) старой папки (если не производит сам - помогите ему сделать это), и будет докачивать только те серии которых у вас ещё нет. Старые серии при этом не удаляются, а продолжают раздаваться!
Если вы уже удалили старые серии, то предотвратить повторную закачку старых серий можно, отжав галочку в соответствующих местах при запуске нового торрента.
Релиз группы:

picpicpicpicpic
Для увеличения картинки щелкните мышкой по превью

Этот торрент недоступен для скачивания без регистрации, однако доступен по публичной magnet-ссылке (источники с публичных трекеров). Перед использованием ссылки прочтите, пожалуйста Пользовательское соглашение, а также как можно дольше оставайтесь на раздаче! Для того, чтобы скачать сам торрент-файл (который видит больше источников), а также для того, чтобы поблагодарить релизера, вам необходимо зарегистрироваться. Если регистрироваться лень - вы можете также попробовать скачать релиз по нашим партнерским ссылкам ниже.

[underverse.su].t56792.torrent
Трекер: Зарегистрирован   [ 03.09.2015 08:02 ]  

Статус: проверено (by makkol at 03.09.2015 12:06)
Поблагодарили: 1 человек
Тип торрента: публичный - доступные источники с открытых трекеров: 
Размер: 7,65 GB (занимает 1,75 DVDR, для записи нужно 2 болванки DVDR/RW)
 
 
Похожие темы
Форум Тема Автор Торрент Отв. Посл. сооб.
Зарубежные сериалы Ганнибал / Hannibal / Сезон 1 (1 - 8 Серии) (Питер Медак, Гильермо Наварро, Майкл Раймер) [2012 г., Сериал, Детектив, Драма, Адреналин, Повод задуматься, Криминал, Для всех, Интрига, HDTVRip] MVO tom.jerry
0 | 0

0 | 993

13

21.05.2013 12:57

Зарубежные сериалы Ганнибал / Hannibal / Сезон 1 / Серии 1-13 (13) (Гильермо Наварро, Майкл Раймер, Дэвид Слэйд) [2013 г., Детектив, криминал, драма, WEBDLRip-AVC] MVO + Original Чертёнок
0 | 0

3 | 630

30

05.08.2013 19:10

Зарубежные сериалы [BD / Remux / BDRip / WEB-DL / HDTV 1080/720р] Ганнибал / Hannibal / Сезон: 2 / Серии: 1-13 из 13 (Гильермо Наварро, Майкл Раймер, Дэвид Слэйд) [2014, детектив, криминал, драма, WEB-DL 1080p] MVO (AlexFilm) uzi2009
3 | 0

0 | 1014

6

27.05.2014 11:11



Последний раз редактировалось: older (08.09.2015 07:38), всего редактировалось 5 раз(а)

older Пол:Муж

12-Авг-2015 16:45

12.08.15. Раздача обновлена!
Добавлена 10 серия.
Перекачайте торрент файл!

older Пол:Муж

26-Авг-2015 17:00

26.08.15. Раздача обновлена!
Добавлена 11-12 серия.
Перекачайте торрент файл!

older Пол:Муж

03-Сен-2015 08:02

03.09.15. Раздача обновлена!
Добавлена 13, последняя серия. Сезон представлен полностью.
Перекачайте торрент файл!

Яндекс.Метрика powered by Sphinx


В Н И М А Н И Е
Сайт не распространяет и не хранит электронные версии произведений, а лишь бесплатно и без коммерческой выгоды (не требуя взамен платы,
SMS и т.д.) предоставляет доступ к создаваемому пользователями каталогу ссылок на торрент-файлы, которые содержат только списки хеш-сумм.
Убедительная просьба с жалобами обращаться напрямую к пользователю, разместившему торрент файл.

Вверх