Loading...
Error

Штамм / The Strain / Сезон 2 (1-13 серии из 13) (Фил Абрахам, Питер Уэллер, Гильермо дель Торо) [2015 г., ужасы, триллер, драма, WEB-DLRip] MVO

Статистика раздачи
Размер:  5,73 GB   |    Зарегистрирован:  1 год 1 месяц   |    Скачан:  6 раз

Полного источника не было: 2 месяца 10 дней

Сидов:  0  |  0 KB/s  ]   Личеров:  0  |  0 KB/s  ]

* - сиды/пиры с внешних источников

   
 
Автор Сообщение

older Пол:Муж

08-Авг-2015 20:42

Штамм / The Strain / Сезон 2


Год выпуска: 2015
Жанр: ужасы, триллер, драма
Страна: США
Режиссер: Фил Абрахам, Питер Уэллер, Гильермо дель Торо
В ролях: Дэвид Брэдли (I), Кори Столл, Миа Маэстро, Джонатан Хайд, Энн Бетанкорт, Бен Хайленд, Николай Вич, Педро Мигель Арсе, Дрю Нельсон, Джо Веркилло, Джим Уотсон, Алекс Пэкстон, Джонатан Поттс, Рихард Заммель, Шон Эстин, Дэррин Бэйкер, Натали Браун, Дональд Бурда, Кевин Дюран, Хавьер Ботет, Реджина Кинг
Сюжет фильма:
Сериал снят по книгам Гильермо Дель Торо, написанным в соавторстве с Чаком Хоганом.
Все началось с того, что в аэропорту Нью-Йорка приземляется самолет с мертвыми пассажирами на борту. Команда вирусологов не может выяснить, что стало причиной массовой гибели людей, пока они не оживают. Бороться с новоявленными вампирами вынуждены пожилой профессор Авраам Сетракян, доктор Эфраим Гудуэзер, биохимик Нора Мартинес и крысобой Василий Фет. Каждому из них придется пережить немало ужасных моментов, а некоторым — столкнуться со своими близкими, которые стали безжалостными монстрами.

Качество видео: WEB-DLRip

Продолжительность: ~ 00:55:00
Формат: AVI
Видео: XviD, 720х400, 1228 kbps
Аудио: русский, многоголосый закадровый [профессиональный], MP3 2.0, 192 kbps
01. Бруклин, Нью-Йорк /BK, NY
02. Любой ценой /By Any Means
03. Непокорный рубеж /Fort Defiance
04. Серебряный ангел /The Silver Angel
05. Быстро и безболезненно /Quick and Painless
06. Сущность /Identity
07. Рождённый /The Born
08. Вторжение /Intruders
09. Битва за Ред Хук /The Battle for Red Hook
10. Убийца /The Assassin
11. Тупик /Dead End
12. Павший свет /Fallen Light
13. Ночной поезд /Night Train

Код:



Формат                                   : AVI
Формат/Информация                        : Audio Video Interleave
Размер файла                             : 596 Мбайт
Продолжительность                        : 58 м.
Режим общего битрейта                    : Переменный
Общий поток                              : 1427 Кбит/сек
Программа кодирования                    : Nandub v1.0rc2
Библиотека кодирования                   : Nandub build 1853/release

Видео
Идентификатор                            : 0
Формат                                   : MPEG-4 Visual
Профиль формата                          : Advanced Simple@L5
Параметр BVOP формата                    : Нет
Параметр QPel формата                    : Нет
Параметр GMC формата                     : Без точки перехода
Параметр матрицы формата                 : Default (H.263)
Идентификатор кодека                     : XVID
Идентификатор кодека/Подсказка           : XviD
Продолжительность                        : 58 м.
Битрейт                                  : 1228 Кбит/сек
Ширина                                   : 720 пикселей
Высота                                   : 400 пикселей
Соотношение сторон                       : 16:9
Частота кадров                           : 23,976 кадра/сек
Цветовое пространство                    : YUV
Субдискретизация насыщенности            : 4:2:0
Битовая глубина                          : 8 бит
Тип развёртки                            : Прогрессивная
Метод сжатия                             : С потерями
Бит/(Пиксели*Кадры)                      : 0.178
Размер потока                            : 512 Мбайт (86%)
Библиотека кодирования                   : XviD 1.2.1 (UTC 2008-12-04)

Аудио
Идентификатор                            : 1
Формат                                   : MPEG Audio
Версия формата                           : Version 1
Профиль формата                          : Layer 3
Режим                                    : Joint stereo
Расширение режима                        : MS Stereo
Идентификатор кодека                     : 55
Идентификатор кодека/Подсказка           : MP3
Продолжительность                        : 58 м.
Вид битрейта                             : Переменный
Битрейт                                  : 192 Кбит/сек
Каналы                                   : 2 канала
Частота                                  : 48,0 КГц
Метод сжатия                             : С потерями
Размер потока                            : 78,0 Мбайт (13%)
Выравнивание                             : Соединение по промежуткам
Продолжительность промежутка             : 24  мс. (0,58 видеокадр)
Время предзагрузки промежутка            : 493  мс.
Библиотека кодирования                   : LAME3.97b
Настройки программы                      : -m j -V 4 -q 3 -lowpass 18.6 --abr 192

Внимание! Раздача ведётся путём добавления новых серий
При каждом добавлении создаётся новый торрент. Чтобы начать докачку новой серии, пользователям необходимо сделать следующее:
1. Остановить скачивание.
2. Удалить старый торрент у себя из клиента (старые серии удалять не надо).
3. Скачать новый торрент и запустить его у себя в клиенте вместо старого, при этом указать клиенту путь в старую папку куда и должно происходить скачивание новых серий.
Ваш клиент при этом должен произвести хеширование (проверку) старой папки (если не производит сам - помогите ему сделать это), и будет докачивать только те серии которых у вас ещё нет. Старые серии при этом не удаляются, а продолжают раздаваться!
Если вы уже удалили старые серии, то предотвратить повторную закачку старых серий можно, отжав галочку в соответствующих местах при запуске нового торрента.
Релиз группы:

picpicpicpicpic
Для увеличения картинки щелкните мышкой по превью


17.10.15. Раздача обновлена!
Добавлена 13, последняя серия. Сезон представлен полностью.
Перекачайте торрент файл!

Этот торрент недоступен для скачивания без регистрации, однако доступен по публичной magnet-ссылке (источники с публичных трекеров). Перед использованием ссылки прочтите, пожалуйста Пользовательское соглашение, а также как можно дольше оставайтесь на раздаче! Для того, чтобы скачать сам торрент-файл (который видит больше источников), а также для того, чтобы поблагодарить релизера, вам необходимо зарегистрироваться. Если регистрироваться лень - вы можете также попробовать скачать релиз по нашим партнерским ссылкам ниже.

[underverse.su].t56787.torrent
Трекер: Зарегистрирован   [ 18.10.2015 08:36 ]  

Статус: проверено (by makkol at 18.10.2015 09:50)
Поблагодарили: 1 человек
Тип торрента: публичный - доступные источники с открытых трекеров: 
Размер: 5,73 GB (занимает 1,31 DVDR, для записи нужно 2 болванки DVDR/RW)
 
 
Похожие темы
Форум Тема Автор Торрент Отв. Посл. сооб.
Зарубежные сериалы [BD / Remux / BDRip / WEB-DL / HDTV 1080/720р] Штамм / The Strain / Сезон: 1 / Серии: 1-13 из 13 (Гильермо дель Торо, Дэвид Семел, Кит Гордон) [2014, ужасы, фантастика, драма, WEB-DL 1080p] MVO (NewStudio) + Original uzi2009
4 | 1

3 | 1900

10

15.11.2014 10:42



Последний раз редактировалось: older (18.10.2015 08:36), всего редактировалось 11 раз(а)

older Пол:Муж

12-Авг-2015 16:39

12.08.15. Раздача обновлена!
Добавлена 5 серия.
Перекачайте торрент файл!

older Пол:Муж

20-Авг-2015 08:57

20.08.15. Раздача обновлена!
Добавлена 6 серия.
Перекачайте торрент файл!

older Пол:Муж

26-Авг-2015 06:02

26.08.15. Раздача обновлена!
Добавлена 7 серия.
Перекачайте торрент файл!

older Пол:Муж

02-Сен-2015 10:40

02.09.15. Раздача обновлена!
Добавлена 8 серия.
Перекачайте торрент файл!

older Пол:Муж

09-Сен-2015 12:17

09.09.15. Раздача обновлена!
Добавлена 9 серия.
Перекачайте торрент файл!

older Пол:Муж

17-Сен-2015 05:11

17.09.15. Раздача обновлена!
Добавлена 10 серия.
Перекачайте торрент файл!

older Пол:Муж

25-Сен-2015 06:58

25.09.15. Раздача обновлена!
Добавлена 11 серия.
Перекачайте торрент файл!

older Пол:Муж

12-Окт-2015 17:30

12.10.15. Раздача обновлена!
Добавлена 12 серия.
Перекачайте торрент файл!

older Пол:Муж

17-Окт-2015 10:12

17.10.15. Раздача обновлена!
Добавлена 13, последняя серия. Сезон представлен полностью.
Перекачайте торрент файл!

Яндекс.Метрика powered by Sphinx


В Н И М А Н И Е
Сайт не распространяет и не хранит электронные версии произведений, а лишь бесплатно и без коммерческой выгоды (не требуя взамен платы,
SMS и т.д.) предоставляет доступ к создаваемому пользователями каталогу ссылок на торрент-файлы, которые содержат только списки хеш-сумм.
Убедительная просьба с жалобами обращаться напрямую к пользователю, разместившему торрент файл.

Вверх