Loading...
Error

Под куполом / Under the Dome / Сезон 3 (1-13 серии из 13) (Джек Бендер, Дэвид Баррет, Питер Лето) [2015 г., фантастика, триллер, драма, детектив, WEB-DLRip] MVO + Original

Статистика раздачи
Размер:  6,95 GB   |    Зарегистрирован:  1 год 2 месяца   |    Скачан:  11 раз

Полного источника не было: 8 часов

Сидов:  0  |  0 KB/s  ]   Личеров:  0  |  0 KB/s  ]

* - сиды/пиры с внешних источников

   
 
Автор Сообщение

older Пол:Муж

08-Авг-2015 18:55

Под куполом / Under the Dome / Сезон 3


Год выпуска: 2015
Жанр: фантастика, триллер, драма, детектив
Страна: США
Режиссер: Джек Бендер, Дэвид Баррет, Питер Лето
В ролях: Р. Кейт Харрис, Колин Форд, Ричард Бэчеллор, Дейв Блеми, Кваджелин Браун, Джон Элвис, Аиша Хиндс, Александр Кох, Рашель Лефевр, Маккензи Линтц
Сюжет фильма:
Сериал основан на одноименном романе Стивена Кинга.
В центре сюжета сериала находится небольшой американский городок под названием Честерс Милл, находящийся в штате Мэн. В один обычный ничего не предвещающий день, жители городка оказываются полностью отрезаны от всего остального мира невидимым силовым куполом.
В третьем сезоне героям предстоит узнать, в чем заключается предназначение купола и что ему нужно от жителей Честерс-Милла.

Качество видео: WEB-DLRip

Продолжительность: ~ 00:43:00
Формат: AVI
Видео: XviD, 720х400, 1536 kbps
Аудио #1: русский, многоголосый закадровый [профессиональный], MP3 2.0, 128 kbps
Аудио #2: английский, оригинал, MP3 2.0, 128 kbps

Код:



Формат                                   : AVI
Формат/Информация                        : Audio Video Interleave
Размер файла                             : 550 Мбайт
Продолжительность                        : 42 м.
Общий поток                              : 1806 Кбит/сек
Программа кодирования                    : VirtualDubMod 1.5.10.3 (build 2550/release)
Библиотека кодирования                   : VirtualDubMod build 2550/release

Видео
Идентификатор                            : 0
Формат                                   : MPEG-4 Visual
Профиль формата                          : Advanced Simple@L5
Параметр BVOP формата                    : 1
Параметр QPel формата                    : Нет
Параметр GMC формата                     : Без точки перехода
Параметр матрицы формата                 : Default (H.263)
Идентификатор кодека                     : XVID
Идентификатор кодека/Подсказка           : XviD
Продолжительность                        : 42 м.
Битрейт                                  : 1536 Кбит/сек
Ширина                                   : 720 пикселей
Высота                                   : 400 пикселей
Соотношение сторон                       : 16:9
Частота кадров                           : 23,976 кадра/сек
Цветовое пространство                    : YUV
Субдискретизация насыщенности            : 4:2:0
Битовая глубина                          : 8 бит
Тип развёртки                            : Прогрессивная
Метод сжатия                             : С потерями
Бит/(Пиксели*Кадры)                      : 0.222
Размер потока                            : 468 Мбайт (85%)
Библиотека кодирования                   : XviD 1.2.1 (UTC 2008-12-04)

Аудио #1
Идентификатор                            : 1
Формат                                   : MPEG Audio
Версия формата                           : Version 1
Профиль формата                          : Layer 3
Режим                                    : Joint stereo
Расширение режима                        : MS Stereo
Идентификатор кодека                     : 55
Идентификатор кодека/Подсказка           : MP3
Продолжительность                        : 42 м.
Вид битрейта                             : Постоянный
Битрейт                                  : 128 Кбит/сек
Каналы                                   : 2 канала
Частота                                  : 48,0 КГц
Метод сжатия                             : С потерями
Размер потока                            : 39,0 Мбайт (7%)
Выравнивание                             : Соединение по промежуткам
Продолжительность промежутка             : 42  мс. (1,00 видеокадр)
Время предзагрузки промежутка            : 504  мс.

Аудио #2
Идентификатор                            : 2
Формат                                   : MPEG Audio
Версия формата                           : Version 1
Профиль формата                          : Layer 3
Режим                                    : Joint stereo
Расширение режима                        : MS Stereo
Идентификатор кодека                     : 55
Идентификатор кодека/Подсказка           : MP3
Продолжительность                        : 42 м.
Вид битрейта                             : Постоянный
Битрейт                                  : 128 Кбит/сек
Каналы                                   : 2 канала
Частота                                  : 48,0 КГц
Метод сжатия                             : С потерями
Размер потока                            : 39,0 Мбайт (7%)
Выравнивание                             : Соединение по промежуткам
Продолжительность промежутка             : 42  мс. (1,00 видеокадр)
Время предзагрузки промежутка            : 504  мс.

Внимание! Раздача ведётся путём добавления новых серий
При каждом добавлении создаётся новый торрент. Чтобы начать докачку новой серии, пользователям необходимо сделать следующее:
1. Остановить скачивание,
2. Удалить старый торрент у себя из клиента (старые серии удалять не надо),
3. Скачать новый торрент и запустить его у себя в клиенте вместо старого, при этом указать клиенту путь в старую папку куда и должно происходить скачивание новых серий.
Ваш клиент при этом должен произвести хеширование (проверку) старой папки (если не производит сам - помогите ему сделать это), и будет докачивать только те серии которых у вас ещё нет. Старые серии при этом не удаляются, а продолжают раздаваться!
Если вы уже удалили старые серии, то предотвратить повторную закачку старых серий можно, отжав галочку в соответствующих местах при запуске нового торрента.
Релиз группы:

picpicpicpicpic
Для увеличения картинки щелкните мышкой по превью

Этот торрент недоступен для скачивания без регистрации, однако доступен по публичной magnet-ссылке (источники с публичных трекеров). Перед использованием ссылки прочтите, пожалуйста Пользовательское соглашение, а также как можно дольше оставайтесь на раздаче! Для того, чтобы скачать сам торрент-файл (который видит больше источников), а также для того, чтобы поблагодарить релизера, вам необходимо зарегистрироваться. Если регистрироваться лень - вы можете также попробовать скачать релиз по нашим партнерским ссылкам ниже.

[underverse.su].t56780.torrent
Трекер: Зарегистрирован   [ 25.09.2015 06:55 ]  

Статус: проверено (by makkol at 25.09.2015 10:45)
Поблагодарили: 3 человека
Тип торрента: публичный - доступные источники с открытых трекеров: 
Размер: 6,95 GB (занимает 1,59 DVDR, для записи нужно 2 болванки DVDR/RW)
 
 
Похожие темы
Форум Тема Автор Торрент Отв. Посл. сооб.
Зарубежные сериалы Под куполом / Under the Dome / Сезон 1 / Серии 1-13 (13) (Джек Бендер) [2013 г., Фантастика, ужасы, WEB-DLRip] MVO + Original Чертёнок
1 | 1

0 | 4053

26

04.08.2013 07:53

Зарубежные сериалы Под куполом / Under the Dome (Джек Бендер) / Сезон 1 / Серии 1-13 (13) [2013 г., мистический триллер, научная фантастика, экранизация, WEB-DLRip-AVC] MVO Чертёнок
6 | 0

1 | 812

13

30.09.2013 17:48

T Зарубежные сериалы Под куполом / Under the Dome / Сезон: 2 / Серии: 1-10 из 13 (Джек Бендер) [2014, Мистический триллер, ужасы, фантастика WEB-DLRip] MVO (LostFilm) uzi2009
4 | 1

2 | 2005

10

15.09.2014 17:41

Зарубежные сериалы [BD / Remux / BDRip / WEB-DL / HDTV 1080/720р] Под куполом / Under the Dome / Сезон: 1 / Серии: 1-13 из 13 (Джек Бендер / Jack Bender) [2013, драма, триллер, фантастика, WEB-DL 1080p] DVO (Кубик в Кубе) + Original + Subs (Rus, Eng) uzi2009
1 | 0

0 | 1138

6

13.08.2014 09:04

Зарубежные сериалы [BD / Remux / BDRip / WEB-DL / HDTV 1080/720р] Под куполом / Under the Dome (Сезон 1-3, серии 1-39 из 39) (Дэвид Барретт, Питер Год) [2013-2015 г., фантастика, триллер, драма, детектив, WEB-DL 720p] MVO (LostFilm) K7SoLoN
0 | 0

3 | 1090

0

15.09.2015 10:57



Последний раз редактировалось: older (12.10.2015 17:27), всего редактировалось 8 раз(а)

older Пол:Муж

10-Авг-2015 18:09

10.08.15 Раздача обновлена!
Добавлена 8 серия.
Перекачайте торрент файл!

older Пол:Муж

18-Авг-2015 02:08

18.08.15. Раздача обновлена!
Добавлена 9 серия.
Перекачайте торрент файл!

older Пол:Муж

01-Сен-2015 03:47

01.09.15. Раздача обновлена!
Добавлены 10-11 серии.
Перекачайте торрент файл!

older Пол:Муж

09-Сен-2015 03:33

0.09.15. Раздача обновлена!
Добавлена 12 серия.
Перекачайте торрент файл!

older Пол:Муж

25-Сен-2015 06:56

25.09.15. Раздача обновлена!
Добавлена 13, последняя серия. Сезон представлен полностью.
Перекачайте торрент файл!

Яндекс.Метрика powered by Sphinx


В Н И М А Н И Е
Сайт не распространяет и не хранит электронные версии произведений, а лишь бесплатно и без коммерческой выгоды (не требуя взамен платы,
SMS и т.д.) предоставляет доступ к создаваемому пользователями каталогу ссылок на торрент-файлы, которые содержат только списки хеш-сумм.
Убедительная просьба с жалобами обращаться напрямую к пользователю, разместившему торрент файл.

Вверх