Loading...
Error

Мгновения грядущего / FlashForward (22 серии) (Дэвид С. Гойер ) [2009-2010 г., Фантастика, драма, HDTVRip] Dub + Original

Статистика раздачи
Размер:  11,62 GB   |    Зарегистрирован:  1 год 3 месяца   |    Скачан:  4 раза

Полного источника не было: 14 часов

Сидов:  0  |  0 KB/s  ]   Личеров:  0  |  0 KB/s  ]

* - сиды/пиры с внешних источников

   
 
Автор Сообщение

Fert Пол:Муж

08-Авг-2015 15:05

Мгновения грядущего / FlashForward


Год выпуска: 2009-2010
Жанр: Фантастика, драма
Страна: США
Режиссер: Дэвид С. Гойер
В ролях: Джозеф Файнc , Соня Уолгер, Джек Девенпорт, Захари Найтон , Пейтон Лист, Доминик Монахэн , Брайан Ф. О’Бирн, Кортни Б. Вэнс, Кристин Вудс и др.
Сюжет фильма:
Cобытия развиваются после того, как в результате научного эксперимента люди во всем мире на две минуты переносятся на 6 месяцев вперед. После этого на Земле начинается хаос. И дело даже не в том, что за эти две минуты произошли тысячи аварий и несчастных случаев. Те, кто увидел себя счастливыми, пытаются изо всех сил приблизить момент счастья. Другие пытаются что-то изменить или впадают в отчаяние. Есть и те, кто в эти две минуты просто потерял сознание. Эти люди со временем понимают, почему у них не было видения — через год они будут уже мертвы. Можно ли изменить увиденное будущее?

Качество видео: HDTVRip

Продолжительность: ~43 мин.=1 серия; 22 серии
Формат: MKV
Видео: MPEG-4 AVC, 1280x720, 23.976 fps, 1508 kbps
Аудио #1: русский, дублированный, AC3 2.0, 256 kbps
Аудио #2: английский, оригинал, AC3 2.0, 128 kbps

Код:

Формат                                   : Matroska
Версия формата                           : Version 2
Размер файла                             : 584 Мбайт
Продолжительность                        : 42 м.
Общий поток                              : 1930 Кбит/сек
Дата кодирования                         : UTC 2010-07-05 08:14:19
Программа кодирования                    : mkvmerge v3.3.0 ('Language') built on Mar 27 2010 20:37:25
Библиотека кодирования                   : libebml v0.7.8 + libmatroska v0.8.1

Видео
Идентификатор                            : 1
Формат                                   : AVC
Формат/Информация                        : Advanced Video Codec
Профиль формата                          : High@L3.1
Параметр CABAC формата                   : Да
Параметр ReFrames формата                : 3 кадра
Идентификатор кодека                     : V_MPEG4/ISO/AVC
Битрейт                                  : 1508 Кбит/сек
Ширина                                   : 1280 пикселей
Высота                                   : 720 пикселей
Соотношение сторон                       : 16:9
Режим частоты кадров                     : Переменный
Частота кадров в оригинале               : 23,976 кадра/сек
Цветовое пространство                    : YUV
Субдискретизация насыщенности            : 4:2:0
Битовая глубина                          : 8 бит
Тип развёртки                            : Прогрессивная
Библиотека кодирования                   : x264 core 83 r1405 3659b81
Настройки программы                      : cabac=1 / ref=3 / deblock=1:0:0 / analyse=0x3:0x113 / me=hex / subme=7 / psy=1 / psy_rd=1.0:0.0 / mixed_ref=1 / me_range=16 / chroma_me=1 / trellis=1 / 8x8dct=1 / cqm=0 / deadzone=21,11 / fast_pskip=1 / chroma_qp_offset=-2 / threads=3 / sliced_threads=0 / nr=0 / decimate=1 / mbaff=0 / constrained_intra=0 / bframes=3 / b_pyramid=0 / b_adapt=1 / b_bias=0 / direct=1 / wpredb=1 / wpredp=2 / keyint=250 / keyint_min=25 / scenecut=40 / intra_refresh=0 / rc_lookahead=40 / rc=crf / mbtree=1 / crf=23.0 / qcomp=0.60 / qpmin=10 / qpmax=51 / qpstep=4 / ip_ratio=1.40 / aq=1:1.00
Default                                  : Да
Forced                                   : Нет

Аудио #1
Идентификатор                            : 2
Формат                                   : AC-3
Формат/Информация                        : Audio Coding 3
Расширение режима                        : CM (complete main)
Параметр Endianness формата              : Big
Идентификатор кодека                     : A_AC3
Продолжительность                        : 42 м.
Вид битрейта                             : Постоянный
Битрейт                                  : 256 Кбит/сек
Каналы                                   : 2 канала
Расположение каналов                     : Front: L R
Частота                                  : 48,0 КГц
Метод сжатия                             : С потерями
Размер потока                            : 77,4 Мбайт (13%)
Язык                                     : Russian
Default                                  : Да
Forced                                   : Нет

Аудио #2
Идентификатор                            : 3
Формат                                   : AC-3
Формат/Информация                        : Audio Coding 3
Расширение режима                        : CM (complete main)
Параметр Endianness формата              : Big
Идентификатор кодека                     : A_AC3
Продолжительность                        : 42 м.
Вид битрейта                             : Постоянный
Битрейт                                  : 128 Кбит/сек
Каналы                                   : 2 канала
Расположение каналов                     : Front: L R
Частота                                  : 48,0 КГц
Метод сжатия                             : С потерями
Размер потока                            : 38,7 Мбайт (7%)
Язык                                     : English
Default                                  : Нет
Forced                                   : Нет
Релиз группы:

pic pic pic pic pic
Для увеличения картинки щелкните мышкой по превью

Этот торрент недоступен для скачивания без регистрации, однако доступен по публичной magnet-ссылке (источники с публичных трекеров). Перед использованием ссылки прочтите, пожалуйста Пользовательское соглашение, а также как можно дольше оставайтесь на раздаче! Для того, чтобы скачать сам торрент-файл (который видит больше источников), а также для того, чтобы поблагодарить релизера, вам необходимо зарегистрироваться. Если регистрироваться лень - вы можете также попробовать скачать релиз по нашим партнерским ссылкам ниже.

[underverse.su].t56777.torrent
Трекер: Зарегистрирован   [ 08.08.2015 15:05 ]  

Статус: проверено (by makkol at 09.08.2015 21:37)
Поблагодарили: пока никто не поблагодарил...
Тип торрента: публичный - доступные источники с открытых трекеров: 
Размер: 11,62 GB (занимает 2,66 DVDR, для записи нужно 3 болванки DVDR/RW)
 
 
Похожие темы
Форум Тема Автор Торрент Отв. Посл. сооб.
Зарубежное кино [DVDRip, Low-Res HDRip, и т.д.] Мгновения Нью-Йорка / New York Minute (Дэнни Гордон / Dennie Gordon) [2004 г., комедия, DVDRip] Dub 90ytr90
6 | 0

0 | 474

8

01.02.2014 13:48

Архив Мгновения грядущего / FlashForward (Ник Гомез, Бобби Рот, Джон Полсон) [2009 (1 сезон) г., фантастика, триллер, драма, детектив, HDTVRip] maddd
0 | 0

8 | 2074

1

17.02.2011 14:46



Последний раз редактировалось: Fert (09.08.2015 19:08), всего редактировалось 1 раз

makkol Пол:Муж

08-Авг-2015 23:04

Используйте пожалуйста для получения MediaInfo известную программу, которая так и называется - MediaInfo. Глаза чуть не сломал, разглядывая Ваш отчёт, но так и не смог высмотреть там половину заявленных параметров, например битрейт видео. По возможности, замените его.

Яндекс.Метрика powered by Sphinx


В Н И М А Н И Е
Сайт не распространяет и не хранит электронные версии произведений, а лишь бесплатно и без коммерческой выгоды (не требуя взамен платы,
SMS и т.д.) предоставляет доступ к создаваемому пользователями каталогу ссылок на торрент-файлы, которые содержат только списки хеш-сумм.
Убедительная просьба с жалобами обращаться напрямую к пользователю, разместившему торрент файл.

Вверх