Loading...
Error

Наследники / Descendants (Кенни Ортега) [2015 г., фэнтези, боевик, комедия, приключения, WEB-DLRip] MVO + Original

Статистика раздачи
Размер:  1,46 GB   |    Зарегистрирован:  1 год 4 месяца   |    Скачан:  67 раз

Полного источника не было: 3 дня

Сидов:  0  |  0 KB/s  ]   Личеров:  0  |  0 KB/s  ]

* - сиды/пиры с внешних источников

   
 
Автор Сообщение

makkol Пол:Муж

08-Авг-2015 14:09

Наследники / Descendants
«They`re not bad. They`re just born that way»


Год выпуска: 2015
Жанр: фэнтези, боевик, комедия, приключения
Производство: США [Disney Channel]
Режиссер: Кенни Ортега
В ролях: Дав Камерон, Кэмерон Бойс, Бу Бу Стюарт, Sofia Carson, Митчелл Хоуп, Мелани Пакссон, Бренна Д’Амико, Сара Джеффри, Zachary Gibson, Джедидайя Гудакр
Сюжет фильма:
После прихода к власти молодой монарх выдает новый указ — «амнистию», по которой всем наследникам известных злодеев, которые находятся в заточении на острове, дается второй шанс. Всех отправляют в школу, в которой учатся дети Белоснежки, Рапунцель и других позитивных героев. Тут второму поколению предстоит определить для себя — продолжать дело родителей, или же начать все с чистого листа.

  • Мировая премьера: 31 июля 2015


Примечание: Любительская озвучка подготовлена релиз-группами StoryFilm.TV & Ananas по просьбе российского фэн-клуба компании Дисней. Лицензионный дубляж ожидается осенью.

Качество видео: WEB-DLRip

Продолжительность: 01:51:53
Формат: AVI
Видео: XviD, 720x400 (16:9), 23.976 fps, 1469 kbps
Аудио #1: русский, любительский многоголосый закадровый, AC3 2.0, 48 kHz, 192 kbps
Аудио #2: английский, оригинал, AC3 2.0, 48 kHz, 192 kbps

Код:

Общее
Полное имя                               : Nasledniki.2015.L.WEB-DLRip.1.46.Gb.avi
Формат                                   : AVI
Формат/Информация                        : Audio Video Interleave
Размер файла                             : 1,46 Гбайт
Продолжительность                        : 1 ч. 51 м.
Общий поток                              : 1868 Кбит/сек
Программа кодирования                    : VirtualDubMod 1.5.10.3 | www.virtualdub-fr.org || (build 2550/release)
Библиотека кодирования                   : VirtualDubMod build 2550/release

Видео
Идентификатор                            : 0
Формат                                   : MPEG-4 Visual
Профиль формата                          : Advanced Simple@L5
Параметр BVOP формата                    : 1
Параметр QPel формата                    : Нет
Параметр GMC формата                     : Без точки перехода
Параметр матрицы формата                 : Выборочная
Идентификатор кодека                     : XVID
Идентификатор кодека/Подсказка           : XviD
Продолжительность                        : 1 ч. 51 м.
Битрейт                                  : 1469 Кбит/сек
Ширина                                   : 720 пикселей
Высота                                   : 400 пикселей
Соотношение сторон                       : 16:9
Частота кадров                           : 23,976 кадра/сек
Цветовое пространство                    : YUV
Субдискретизация насыщенности            : 4:2:0
Битовая глубина                          : 8 бит
Тип развёртки                            : Прогрессивная
Метод сжатия                             : С потерями
Бит/(Пиксели*Кадры)                      : 0.213
Размер потока                            : 1,15 Гбайт (79%)
Библиотека кодирования                   : XviD 73

Аудио #1
Идентификатор                            : 1
Формат                                   : AC-3
Формат/Информация                        : Audio Coding 3
Расширение режима                        : CM (complete main)
Параметр Endianness формата              : Big
Идентификатор кодека                     : 2000
Продолжительность                        : 1 ч. 51 м.
Вид битрейта                             : Постоянный
Битрейт                                  : 192 Кбит/сек
Каналы                                   : 2 канала
Расположение каналов                     : Front: L R
Частота                                  : 48,0 КГц
Метод сжатия                             : С потерями
Размер потока                            : 154 Мбайт (10%)
Выравнивание                             : Разделение по промежуткам
Продолжительность промежутка             : 42  мс. (1,00 видеокадр)
Время предзагрузки промежутка            : 500  мс.

Аудио #2
Идентификатор                            : 2
Формат                                   : AC-3
Формат/Информация                        : Audio Coding 3
Расширение режима                        : CM (complete main)
Параметр Endianness формата              : Big
Идентификатор кодека                     : 2000
Продолжительность                        : 1 ч. 51 м.
Вид битрейта                             : Постоянный
Битрейт                                  : 192 Кбит/сек
Каналы                                   : 2 канала
Расположение каналов                     : Front: L R
Частота                                  : 48,0 КГц
Метод сжатия                             : С потерями
Размер потока                            : 154 Мбайт (10%)
Выравнивание                             : Разделение по промежуткам
Продолжительность промежутка             : 42  мс. (1,00 видеокадр)
Время предзагрузки промежутка            : 500  мс.
picpicpicpicpic
Для увеличения картинки щелкните мышкой по превью

Этот торрент недоступен для скачивания без регистрации, однако доступен по публичной magnet-ссылке (источники с публичных трекеров). Перед использованием ссылки прочтите, пожалуйста Пользовательское соглашение, а также как можно дольше оставайтесь на раздаче! Для того, чтобы скачать сам торрент-файл (который видит больше источников), а также для того, чтобы поблагодарить релизера, вам необходимо зарегистрироваться. Если регистрироваться лень - вы можете также попробовать скачать релиз по нашим партнерским ссылкам ниже.

[underverse.su].t56774.torrent
Трекер: Зарегистрирован   [ 08.08.2015 14:09 ]  

Статус: проверено (by makkol at 08.08.2015 22:43)
Поблагодарили: пока никто не поблагодарил...
Тип торрента: публичный - доступные источники с открытых трекеров: 
Размер: 1,46 GB (занимает 0,33 DVDR, для записи нужно 1 болванка DVDR/RW)
 
 
Похожие темы
Форум Тема Автор Торрент Отв. Посл. сооб.
Зарубежное кино [HDDVDRip / BDRip / WEB-DL / HDTV 1080/720р] Наследники / Descendants (Кенни Ортега) [2015 г., фэнтези, боевик, комедия, приключения, WEB-DL 1080p] MVO makkol
7 | 0

0 | 1055

40

08.08.2015 14:26

Наше кино [HDDVDRip / BDRip / WEB-DL / HDTV 1080/720р] Наследники (Владимир Хотиненко) [2015 г., Драма, WEB-DL 1080p] romeoexpert
6 | 0

0 | 696

41

07.01.2016 10:11


Яндекс.Метрика powered by Sphinx


В Н И М А Н И Е
Сайт не распространяет и не хранит электронные версии произведений, а лишь бесплатно и без коммерческой выгоды (не требуя взамен платы,
SMS и т.д.) предоставляет доступ к создаваемому пользователями каталогу ссылок на торрент-файлы, которые содержат только списки хеш-сумм.
Убедительная просьба с жалобами обращаться напрямую к пользователю, разместившему торрент файл.

Вверх