Loading...
Error

Викинг: Берсеркеры / Viking: The Berserkers (Энтони Смит) [2014 г., боевик, HDRip] VO

Статистика раздачи
Размер:  1,2 GB   |    Зарегистрирован:  1 год 3 месяца   |    Скачан:  34 раза

Полного источника не было: 6 месяцев

Сидов:  0  |  0 KB/s  ]   Личеров:  0  |  0 KB/s  ]

* - сиды/пиры с внешних источников

   
 
Автор Сообщение

makkol Пол:Муж

08-Авг-2015 13:19

Викинг: Берсеркеры / Viking: The Berserkers


Год выпуска: 2014
Жанр: боевик
Производство: Великобритания [Lindisfarne SPV1]
Режиссер: Энтони Смит
В ролях: Сол Ерас, Саймон Армстронг, Энтони Бэйнс, Кезия Берроуз, Ник Корнуолл, Гарри Фелтэм, Джейсон Мэй, Ребекка Морган, Эмбер Джин Роуэн
Сюжет фильма:
В тёмные времена Британии, группа молодых саксов захвачены кланом грозных викингов и используется в качестве добычи в ритуальной охоте.

  • Мировая премьера: 15 сентября 2014


Качество видео: HDRip

Продолжительность: 01:35:18
Формат: AVI
Видео: XviD, 720x304 (2.35:1), 23.976 fps, 1598 kbps
Аудио: русский, любительский одноголосый закадровый (ХихиДок), MP3 2.0, 44.1 kHz, 192 kbps

Код:

Общее
Полное имя                               : Viking.The.Berserkers.Xixidok.avi
Формат                                   : AVI
Формат/Информация                        : Audio Video Interleave
Размер файла                             : 1,20 Гбайт
Продолжительность                        : 1 ч. 35 м.
Общий поток                              : 1800 Кбит/сек
Программа кодирования                    : VirtualDubMod 1.5.10.3 (build 2550/release)
Библиотека кодирования                   : VirtualDubMod build 2550/release

Видео
Идентификатор                            : 0
Формат                                   : MPEG-4 Visual
Профиль формата                          : Advanced Simple@L5
Параметр BVOP формата                    : 2
Параметр QPel формата                    : Да
Параметр GMC формата                     : Без точки перехода
Параметр матрицы формата                 : Default (MPEG)
Идентификатор кодека                     : XVID
Идентификатор кодека/Подсказка           : XviD
Продолжительность                        : 1 ч. 35 м.
Битрейт                                  : 1598 Кбит/сек
Ширина                                   : 720 пикселей
Высота                                   : 304 пикселя
Соотношение сторон                       : 2,35:1
Частота кадров                           : 23,976 кадра/сек
Цветовое пространство                    : YUV
Субдискретизация насыщенности            : 4:2:0
Битовая глубина                          : 8 бит
Тип развёртки                            : Прогрессивная
Метод сжатия                             : С потерями
Бит/(Пиксели*Кадры)                      : 0.291
Размер потока                            : 1,07 Гбайт (85%)
Библиотека кодирования                   : XviD 1.2.1 (UTC 2008-12-04)

Аудио
Идентификатор                            : 1
Формат                                   : MPEG Audio
Версия формата                           : Version 1
Профиль формата                          : Layer 3
Идентификатор кодека                     : 55
Идентификатор кодека/Подсказка           : MP3
Продолжительность                        : 1 ч. 35 м.
Вид битрейта                             : Постоянный
Битрейт                                  : 192 Кбит/сек
Каналы                                   : 2 канала
Частота                                  : 44,1 КГц
Метод сжатия                             : С потерями
Размер потока                            : 131 Мбайт (11%)
Выравнивание                             : Разделение по промежуткам
picpicpicpicpic
Для увеличения картинки щелкните мышкой по превью

Этот торрент недоступен для скачивания без регистрации, однако доступен по публичной magnet-ссылке (источники с публичных трекеров). Перед использованием ссылки прочтите, пожалуйста Пользовательское соглашение, а также как можно дольше оставайтесь на раздаче! Для того, чтобы скачать сам торрент-файл (который видит больше источников), а также для того, чтобы поблагодарить релизера, вам необходимо зарегистрироваться. Если регистрироваться лень - вы можете также попробовать скачать релиз по нашим партнерским ссылкам ниже.

[underverse.su].t56767.torrent
Трекер: Зарегистрирован   [ 08.08.2015 13:19 ]  

Статус: проверено (by makkol at 08.08.2015 13:21)
Поблагодарили: 1 человек
Тип торрента: публичный - доступные источники с открытых трекеров: 
Размер: 1,2 GB (занимает 0,27 DVDR, для записи нужно 1 болванка DVDR/RW)
 
 

Яндекс.Метрика powered by Sphinx


В Н И М А Н И Е
Сайт не распространяет и не хранит электронные версии произведений, а лишь бесплатно и без коммерческой выгоды (не требуя взамен платы,
SMS и т.д.) предоставляет доступ к создаваемому пользователями каталогу ссылок на торрент-файлы, которые содержат только списки хеш-сумм.
Убедительная просьба с жалобами обращаться напрямую к пользователю, разместившему торрент файл.

Вверх