Loading...
Error

Любовь или секс / The Bounceback / Love & Air Sex (Брайан Пойсер) [2013 г., мелодрама, комедия, WEB-DLRip] MVO

Статистика раздачи
Размер:  1,37 GB   |    Зарегистрирован:  1 год 3 месяца   |    Скачан:  23 раза

Полного источника не было: 3 месяца 4 дня

Сидов:  0  |  0 KB/s  ]   Личеров:  0  |  0 KB/s  ]

* - сиды/пиры с внешних источников

   
 
Автор Сообщение

makkol Пол:Муж

08-Авг-2015 10:54

Любовь или секс / The Bounceback / Love & Air Sex


Год выпуска: 2013
Жанр: мелодрама, комедия
Производство: США [Anaphrodisiac, Preferred Content]
Режиссер: Брайан Пойсер
В ролях: Эшли Белл, Зак Креггер, Сара Пэкстон, Майкл Сталь-Дэвид, Эддисон Тимлин, Маршалл Оллман, Джастин Арнольд, Дебора Эбботт, Саманта Баньон, Гопал Бидари
Сюжет фильма:
Отчаявшийся Стэн летит в Остин на выходные в надежде «случайно» встретить свою бывшую девушку Кэти. Приехав, он узнает, что его лучшие друзья, Джефф и Кара, находятся на грани расставания. Но все еще можно исправить...

  • Мировая премьера: 9 марта 2013
  • Российская премьера: 23 апреля 2015


Качество видео: WEB-DLRip

Продолжительность: 01:30:50
Формат: AVI
Видео: XviD, 720x400 (16:9), 23.976 fps, 1951 kbps
Аудио: русский, профессиональный многоголосый закадровый (официальный звук), AC3 2.0, 48 kHz, 192 kbps

Код:

Общее
Полное имя                               : Lubovj.i.sers.2013.P.WEDLRip.avi
Формат                                   : AVI
Формат/Информация                        : Audio Video Interleave
Размер файла                             : 1,37 Гбайт
Продолжительность                        : 1 ч. 30 м.
Общий поток                              : 2153 Кбит/сек
Программа кодирования                    : VirtualDubMod 1.5.10.2 (build 2540/release)
Библиотека кодирования                   : VirtualDubMod build 2540/release

Видео
Идентификатор                            : 0
Формат                                   : MPEG-4 Visual
Профиль формата                          : Advanced Simple@L5
Параметр BVOP формата                    : 2
Параметр QPel формата                    : Нет
Параметр GMC формата                     : Без точки перехода
Параметр матрицы формата                 : Default (MPEG)
Режим смешивания                         : Сжатый битовый поток
Идентификатор кодека                     : XVID
Идентификатор кодека/Подсказка           : XviD
Продолжительность                        : 1 ч. 30 м.
Битрейт                                  : 1951 Кбит/сек
Ширина                                   : 720 пикселей
Высота                                   : 400 пикселей
Соотношение сторон                       : 16:9
Частота кадров                           : 23,976 кадра/сек
Цветовое пространство                    : YUV
Субдискретизация насыщенности            : 4:2:0
Битовая глубина                          : 8 бит
Тип развёртки                            : Прогрессивная
Метод сжатия                             : С потерями
Бит/(Пиксели*Кадры)                      : 0.270
Размер потока                            : 1,24 Гбайт (91%)
Библиотека кодирования                   : XviD 1.2.1 (UTC 2008-12-04)

Аудио
Идентификатор                            : 1
Формат                                   : AC-3
Формат/Информация                        : Audio Coding 3
Расширение режима                        : CM (complete main)
Параметр Endianness формата              : Big
Идентификатор кодека                     : 2000
Продолжительность                        : 1 ч. 30 м.
Вид битрейта                             : Постоянный
Битрейт                                  : 192 Кбит/сек
Каналы                                   : 2 канала
Расположение каналов                     : Front: L R
Частота                                  : 48,0 КГц
Битовая глубина                          : 16 бит
Метод сжатия                             : С потерями
Размер потока                            : 125 Мбайт (9%)
Выравнивание                             : Разделение по промежуткам
picpicpicpicpic
Для увеличения картинки щелкните мышкой по превью

Этот торрент недоступен для скачивания без регистрации, однако доступен по публичной magnet-ссылке (источники с публичных трекеров). Перед использованием ссылки прочтите, пожалуйста Пользовательское соглашение, а также как можно дольше оставайтесь на раздаче! Для того, чтобы скачать сам торрент-файл (который видит больше источников), а также для того, чтобы поблагодарить релизера, вам необходимо зарегистрироваться. Если регистрироваться лень - вы можете также попробовать скачать релиз по нашим партнерским ссылкам ниже.

[underverse.su].t56763.torrent
Трекер: Зарегистрирован   [ 08.08.2015 10:54 ]  

Статус: проверено (by makkol at 08.08.2015 12:52)
Поблагодарили: пока никто не поблагодарил...
Тип торрента: публичный - доступные источники с открытых трекеров: 
Размер: 1,37 GB (занимает 0,31 DVDR, для записи нужно 1 болванка DVDR/RW)
 
 

Яндекс.Метрика powered by Sphinx


В Н И М А Н И Е
Сайт не распространяет и не хранит электронные версии произведений, а лишь бесплатно и без коммерческой выгоды (не требуя взамен платы,
SMS и т.д.) предоставляет доступ к создаваемому пользователями каталогу ссылок на торрент-файлы, которые содержат только списки хеш-сумм.
Убедительная просьба с жалобами обращаться напрямую к пользователю, разместившему торрент файл.

Вверх