Loading...
Error

Страшные сказки / Penny Dreadful / Сезон 1 (1-8 серии) (8) (Джеймс Хоуз, Брайан Кирк, Хуан Антонио Байона) [2014 г., ужасы, драма, HDTVRip] MVO

Статистика раздачи
Размер:  6,37 GB   |    Зарегистрирован:  1 год 4 месяца   |    Скачан:  23 раза
Сидов:  2  |  105 KB/s  ]   Личеров:  0  |  0 KB/s  ]

* - сиды/пиры с внешних источников

   
 
Автор Сообщение

older Пол:Муж

07-Авг-2015 22:01

Страшные сказки / Penny Dreadful
Сезон 1 (1-8 серии)


Год выпуска: 2014
Жанр: ужасы, драма
Страна: США , Ирландия , Великобритания
Режиссер: Джеймс Хоуз, Брайан Кирк, Хуан Антонио Байона
В ролях: Тимоти Далтон, Ева Грин, Джош Хартнетт, Рори Киннер, Хелен МакКрори, Билли Пайпер, Гарри Тредэвэй, Рив Карни, Алан Армстронг, Рик Берн, Джейд Юрелл
Сюжет фильма:
Викторианский Лондон. Здесь никогда не было безопасности и спокойствия. Горожане заняты исключительно повседневными делами, не замечая признаков грядущих изменений. Однако им следовало бы стать повнимательней, потому что на улицах британской столицы собирается нечисть самого разного толка, способная навести ужас на кого угодно. Со многими из представителей этой нечисти вы давно знакомы: тут вам и демонический юноша Дориан Грей из романа Оскара Уайльда, и многомудрый доктор Джекил вместе со своим альтер-эго мистером Хайдом, и немец Франкенштейн «под ручку» со своим чудовищным творением, и жаждущий крови великолепный граф Дракула из Трансильвании, а также его подручные-вампиры и другие, не менее зловещие сущности.

Качество видео: HDTVRip

Продолжительность: ~ 00:54:00
Формат: AVI
Видео: XviD, 688х384, 1712 kbps
Аудио: русский, многоголосый закадровый [профессиональный], AC3 2.0, 384 kbps

Код:



Формат                                   : AVI
Формат/Информация                        : Audio Video Interleave
Размер файла                             : 797 Мбайт
Продолжительность                        : 52 м.
Общий поток                              : 2105 Кбит/сек
Программа кодирования                    : VirtualDubMod 1.5.10.3 | www.virtualdub-fr.org || (build 2550/release)
Библиотека кодирования                   : VirtualDubMod build 2550/release

Видео
Идентификатор                            : 0
Формат                                   : MPEG-4 Visual
Профиль формата                          : Advanced Simple@L5
Параметр BVOP формата                    : 1
Параметр QPel формата                    : Нет
Параметр GMC формата                     : Без точки перехода
Параметр матрицы формата                 : Выборочная
Идентификатор кодека                     : XVID
Идентификатор кодека/Подсказка           : XviD
Продолжительность                        : 52 м.
Битрейт                                  : 1712 Кбит/сек
Ширина                                   : 688 пикселей
Высота                                   : 384 пикселя
Соотношение сторон                       : 16:9
Частота кадров                           : 23,976 кадра/сек
Цветовое пространство                    : YUV
Субдискретизация насыщенности            : 4:2:0
Битовая глубина                          : 8 бит
Тип развёртки                            : Прогрессивная
Метод сжатия                             : С потерями
Бит/(Пиксели*Кадры)                      : 0.270
Размер потока                            : 648 Мбайт (81%)
Библиотека кодирования                   : XviD 1.2.1 (UTC 2008-12-04)

Аудио
Идентификатор                            : 1
Формат                                   : AC-3
Формат/Информация                        : Audio Coding 3
Расширение режима                        : CM (complete main)
Параметр Endianness формата              : Big
Идентификатор кодека                     : 2000
Продолжительность                        : 52 м.
Вид битрейта                             : Постоянный
Битрейт                                  : 384 Кбит/сек
Каналы                                   : 2 канала
Расположение каналов                     : Front: L R
Частота                                  : 48,0 КГц
Битовая глубина                          : 16 бит
Метод сжатия                             : С потерями
Размер потока                            : 145 Мбайт (18%)
Выравнивание                             : Разделение по промежуткам
Продолжительность промежутка             : 42  мс. (1,00 видеокадр)
Время предзагрузки промежутка            : 500  мс.

Релиз группы:

picpicpicpicpic
Для увеличения картинки щелкните мышкой по превью

Этот торрент недоступен для скачивания без регистрации, однако доступен по публичной magnet-ссылке (источники с публичных трекеров). Перед использованием ссылки прочтите, пожалуйста Пользовательское соглашение, а также как можно дольше оставайтесь на раздаче! Для того, чтобы скачать сам торрент-файл (который видит больше источников), а также для того, чтобы поблагодарить релизера, вам необходимо зарегистрироваться. Если регистрироваться лень - вы можете также попробовать скачать релиз по нашим партнерским ссылкам ниже.

[underverse.su].t56752.torrent
Трекер: Зарегистрирован   [ 07.08.2015 22:01 ]  

Статус: проверено (by Ведьмочка at 07.08.2015 22:07)
Поблагодарили: 1 человек
Тип торрента: публичный - доступные источники с открытых трекеров: 
Размер: 6,37 GB (занимает 1,46 DVDR, для записи нужно 2 болванки DVDR/RW)
 
 
Похожие темы
Форум Тема Автор Торрент Отв. Посл. сооб.
Зарубежное кино [DVDRip, Low-Res HDRip, и т.д.] Страшные сказки / Il racconto dei racconti (Маттео Гарроне / Matteo Garrone) [2015 г., ужасы, фэнтези, мелодрама, HDRip] AVO (Сербин) 90ytr90
21 | 0

0 | 445

2

13.09.2016 16:34

Зарубежное кино [DVDRip, Low-Res HDRip, и т.д.] Страшные сказки / Il racconto dei racconti (Маттео Гарроне / Matteo Garrone) [2015 г., ужасы, фэнтези, мелодрама, BDRip] Dub 90ytr90
60 | 0

0 | 453

4

13.09.2016 16:27

Зарубежное кино [DVDRip, Low-Res HDRip, и т.д.] Страшные сказки / Il racconto dei racconti (Маттео Гарроне) [2015 г., фэнтези, сказка, арт-хаус, DVDRip] VO makkol
77 | 2

0 | 1218

123

05.09.2015 13:25

Зарубежное кино [DVDRip, Low-Res HDRip, и т.д.] Страшные сказки / Il racconto dei racconti (Маттео Гарроне / Matteo Garrone) [2015 г., ужасы, фэнтези, мелодрама, BDRip] Dub 90ytr90
75 | 2

0 | 485

10

13.09.2016 16:39

Зарубежные сериалы Страшные сказки / Penny Dreadful / Сезон 2 (10 серий из 10) (Джеймс Хоуз, Брайан Кирк, Хуан Антонио Байона) [2015 г., ужасы, драма, HDTVRip] MVO older
9 | 1

0 | 856

17

07.08.2015 22:28

Зарубежное кино [HDDVDRip / BDRip / WEB-DL / HDTV 1080/720р] Страшные сказки / Il racconto dei racconti (Маттео Гарроне / Matteo Garrone) [2015 г., ужасы, фэнтези, мелодрама, BDRip 720p] Dub (Rus) + AVO (Сербин) + MVO (Ukr) + Original (Eng) + Sub (Rus, Eng,... 90ytr90
12 | 2

0 | 175

1

14.09.2016 19:54

Зарубежное кино [HDDVDRip / BDRip / WEB-DL / HDTV 1080/720р] Страшные сказки / Il racconto dei racconti (Маттео Гарроне / Matteo Garrone) [2015 г., ужасы, фэнтези, мелодрама, BDRip 1080p] Dub (Rus) + AVO (Сербин) + MVO (Ukr) + Original (Eng) + Sub (Rus, Eng,... 90ytr90
6 | 2

0 | 232

2

14.09.2016 20:05

Зарубежное кино [HDDVDRip / BDRip / WEB-DL / HDTV 1080/720р] Страшные сказки / Il racconto dei racconti (Маттео Гарроне / Matteo Garrone) [2015 г., ужасы, фэнтези, мелодрама, BDRip 720p] Dub + Original (Eng) + Sub (Rom, Rus, Eng, Ita) 90ytr90
17 | 0

0 | 447

2

13.09.2016 17:13

Зарубежное кино [HDDVDRip / BDRip / WEB-DL / HDTV 1080/720р] Страшные сказки / Il racconto dei racconti (Маттео Гарроне) [2015 г., фэнтези, сказка, арт-хаус, BDRip 1080p] VO (PashaUp) + Ita + Eng makkol
16 | 0

0 | 866

20

05.09.2015 14:07

Зарубежное кино [HDDVDRip / BDRip / WEB-DL / HDTV 1080/720р] Страшные сказки / Il racconto dei racconti (Маттео Гарроне) [2015 г., фэнтези, сказка, арт-хаус, BDRip 720p] VO + Original makkol
25 | 0

0 | 725

39

05.09.2015 13:36


Яндекс.Метрика powered by Sphinx


В Н И М А Н И Е
Сайт не распространяет и не хранит электронные версии произведений, а лишь бесплатно и без коммерческой выгоды (не требуя взамен платы,
SMS и т.д.) предоставляет доступ к создаваемому пользователями каталогу ссылок на торрент-файлы, которые содержат только списки хеш-сумм.
Убедительная просьба с жалобами обращаться напрямую к пользователю, разместившему торрент файл.

Вверх