Loading...
Error

День добычи / Extraction Day (Мэтью Нинабер) [2014 г., боевик, WEB-DLRip] VO

Статистика раздачи
Размер:  1,45 GB   |    Зарегистрирован:  1 год 4 месяца   |    Скачан:  27 раз

Полного источника не было: 3 месяца 8 дней

Сидов:  0  |  0 KB/s  ]   Личеров:  0  |  0 KB/s  ]

* - сиды/пиры с внешних источников

   
 
Автор Сообщение

makkol Пол:Муж

06-Авг-2015 23:04

День добычи / Extraction Day


Год выпуска: 2014
Жанр: боевик
Производство: Канада [High Rise Studio]
Режиссер: Мэтью Нинабер
В ролях: Эллисон Бушер, Натан А. Грив, Джанна Китцман, Этан Митчелл, Джереми Нинабер, Андрей Рот, Аарон Томлин
Сюжет фильма:
Джейкоб Брэдли просыпается черт знает где, и понимает, что не помнит кто он. Одна добрая женщина помогает ему вспомнить подробности передряги — террористы изобрели вирус для уничтожения человечества, а он знает рецепт вакцины. За ним идет охота. Вирус скоро окажется на свободе…

  • Мировая премьера: 20 октября 2014


Качество видео: WEB-DLRip

Продолжительность: 01:46:00
Формат: AVI
Видео: XviD, 720x304 (2.35:1), 23.976 fps, 1569 kbps
Аудио: русский, любительский одноголосый закадровый (daynet), AC3 5.1, 48 kHz, 384 kbps

Код:

Общее
Полное имя                               : Extraction.Day.2015.L1.WEBRip.avi
Формат                                   : AVI
Формат/Информация                        : Audio Video Interleave
Размер файла                             : 1,45 Гбайт
Продолжительность                        : 1 ч. 46 м.
Общий поток                              : 1953 Кбит/сек
Программа кодирования                    : VirtualDubMod 1.5.10.3 | www.virtualdub-fr.org || (build 2550/release)
Библиотека кодирования                   : VirtualDubMod build 2550/release

Видео
Идентификатор                            : 0
Формат                                   : MPEG-4 Visual
Профиль формата                          : Advanced Simple@L5
Параметр BVOP формата                    : 1
Параметр QPel формата                    : Нет
Параметр GMC формата                     : Без точки перехода
Параметр матрицы формата                 : Выборочная
Идентификатор кодека                     : XVID
Идентификатор кодека/Подсказка           : XviD
Продолжительность                        : 1 ч. 46 м.
Битрейт                                  : 1569 Кбит/сек
Ширина                                   : 720 пикселей
Высота                                   : 304 пикселя
Соотношение сторон                       : 2,35:1
Частота кадров                           : 23,976 кадра/сек
Цветовое пространство                    : YUV
Субдискретизация насыщенности            : 4:2:0
Битовая глубина                          : 8 бит
Тип развёртки                            : Прогрессивная
Метод сжатия                             : С потерями
Бит/(Пиксели*Кадры)                      : 0.284
Размер потока                            : 1,15 Гбайт (80%)
Библиотека кодирования                   : XviD 73

Аудио
Идентификатор                            : 1
Формат                                   : AC-3
Формат/Информация                        : Audio Coding 3
Расширение режима                        : CM (complete main)
Параметр Endianness формата              : Big
Идентификатор кодека                     : 2000
Продолжительность                        : 1 ч. 46 м.
Вид битрейта                             : Постоянный
Битрейт                                  : 384 Кбит/сек
Каналы                                   : 6 каналов
Расположение каналов                     : Front: L C R, Side: L R, LFE
Частота                                  : 48,0 КГц
Битовая глубина                          : 16 бит
Метод сжатия                             : С потерями
Размер потока                            : 291 Мбайт (20%)
Выравнивание                             : Разделение по промежуткам
picpicpicpicpic
Для увеличения картинки щелкните мышкой по превью

Этот торрент недоступен для скачивания без регистрации, однако доступен по публичной magnet-ссылке (источники с публичных трекеров). Перед использованием ссылки прочтите, пожалуйста Пользовательское соглашение, а также как можно дольше оставайтесь на раздаче! Для того, чтобы скачать сам торрент-файл (который видит больше источников), а также для того, чтобы поблагодарить релизера, вам необходимо зарегистрироваться. Если регистрироваться лень - вы можете также попробовать скачать релиз по нашим партнерским ссылкам ниже.

[underverse.su].t56713.torrent
Трекер: Зарегистрирован   [ 06.08.2015 23:04 ]  

Статус: проверено (by makkol at 07.08.2015 12:05)
Поблагодарили: пока никто не поблагодарил...
Тип торрента: публичный - доступные источники с открытых трекеров: 
Размер: 1,45 GB (занимает 1/3 DVDR, для записи нужно 1 болванка DVDR/RW)
 
 
Похожие темы
Форум Тема Автор Торрент Отв. Посл. сооб.
Зарубежное кино [HDDVDRip / BDRip / WEB-DL / HDTV 1080/720р] День добычи / Extraction Day (Мэтью Нинабер) [2014 г., боевик, WEB-DL 720p] VO + Original makkol
26 | 2

0 | 516

15

06.08.2015 23:16


Яндекс.Метрика powered by Sphinx


В Н И М А Н И Е
Сайт не распространяет и не хранит электронные версии произведений, а лишь бесплатно и без коммерческой выгоды (не требуя взамен платы,
SMS и т.д.) предоставляет доступ к создаваемому пользователями каталогу ссылок на торрент-файлы, которые содержат только списки хеш-сумм.
Убедительная просьба с жалобами обращаться напрямую к пользователю, разместившему торрент файл.

Вверх