Loading...
Error

Ярость мертвецов / Anger of the Dead (Франческо Пиконе) [2015 г., ужасы, драма, HDRip] VO + Original

Статистика раздачи
Размер:  1,37 GB   |    Зарегистрирован:  1 год 3 месяца   |    Скачан:  17 раз

Полного источника не было: 1 месяц 6 дней

Сидов:  0  |  0 KB/s  ]   Личеров:  0  |  0 KB/s  ]

* - сиды/пиры с внешних источников

   
 
Автор Сообщение

makkol Пол:Муж

05-Авг-2015 23:34

Ярость мертвецов / Anger of the Dead


Год выпуска: 2015
Жанр: ужасы, драма
Производство: Канада , Италия [Event Film Distribution, Extreme Video Snc]
Режиссер: Франческо Пиконе
В ролях: Айк Стилстра, Майкл Сигал, Мариус Бизо, Дезире Джорджетти, Клаудио Камилли, Дэвид Уайт, Элли МакКлелланд, Роберта Спарта
Сюжет фильма:
Беременная девушка вместе с двумя спутниками пытается выжить, путешествуя по дорогам на автомобиле. Тем временем, на встречу им бежит пленница, ставшая их судьбой, за которой гонится беспощадный Охотник со своими отмороженными товарищами.

  • Мировая премьера: 21 февраля 2015


Перевод: МЕГАПЫХАРЬ и Ворон
Озвучивание: МЕГАПЫХАРЬ

Качество видео: HDRip

Продолжительность: 01:24:00
Формат: AVI
Видео: XviD, 720x304 (2.35:1), 23.976 fps, 1932 kbps
Аудио #1: русский, любительский одноголосый закадровый, AC3 2.0, 48 kHz, 192 kbps
Аудио #2: английский, оригинал, AC3 2.0, 48 kHz, 192 kbps

Код:

Общее
Полное имя                               : Age.of.the.Dead.2015.L1.HDRip.avi
Формат                                   : AVI
Формат/Информация                        : Audio Video Interleave
Размер файла                             : 1,37 Гбайт
Продолжительность                        : 1 ч. 23 м.
Общий поток                              : 2330 Кбит/сек
Программа кодирования                    : VirtualDubMod 1.5.10.3 | www.virtualdub-fr.org || (build 2550/release)
Библиотека кодирования                   : VirtualDubMod build 2550/release

Видео
Идентификатор                            : 0
Формат                                   : MPEG-4 Visual
Профиль формата                          : Advanced Simple@L5
Параметр BVOP формата                    : 1
Параметр QPel формата                    : Нет
Параметр GMC формата                     : Без точки перехода
Параметр матрицы формата                 : Выборочная
Идентификатор кодека                     : XVID
Идентификатор кодека/Подсказка           : XviD
Продолжительность                        : 1 ч. 23 м.
Битрейт                                  : 1932 Кбит/сек
Ширина                                   : 720 пикселей
Высота                                   : 304 пикселя
Соотношение сторон                       : 2,35:1
Частота кадров                           : 23,976 кадра/сек
Цветовое пространство                    : YUV
Субдискретизация насыщенности            : 4:2:0
Битовая глубина                          : 8 бит
Тип развёртки                            : Прогрессивная
Метод сжатия                             : С потерями
Бит/(Пиксели*Кадры)                      : 0.368
Размер потока                            : 1,13 Гбайт (83%)
Библиотека кодирования                   : XviD 73

Аудио #1
Идентификатор                            : 1
Формат                                   : AC-3
Формат/Информация                        : Audio Coding 3
Расширение режима                        : CM (complete main)
Параметр Endianness формата              : Big
Идентификатор кодека                     : 2000
Продолжительность                        : 1 ч. 23 м.
Вид битрейта                             : Постоянный
Битрейт                                  : 192 Кбит/сек
Каналы                                   : 2 канала
Расположение каналов                     : Front: L R
Частота                                  : 48,0 КГц
Метод сжатия                             : С потерями
Размер потока                            : 115 Мбайт (8%)
Выравнивание                             : Разделение по промежуткам
Продолжительность промежутка             : 42  мс. (1,00 видеокадр)
Время предзагрузки промежутка            : 500  мс.

Аудио #2
Идентификатор                            : 2
Формат                                   : AC-3
Формат/Информация                        : Audio Coding 3
Расширение режима                        : CM (complete main)
Параметр Endianness формата              : Big
Идентификатор кодека                     : 2000
Продолжительность                        : 1 ч. 23 м.
Вид битрейта                             : Постоянный
Битрейт                                  : 192 Кбит/сек
Каналы                                   : 2 канала
Расположение каналов                     : Front: L R
Частота                                  : 48,0 КГц
Метод сжатия                             : С потерями
Размер потока                            : 115 Мбайт (8%)
Выравнивание                             : Разделение по промежуткам
Продолжительность промежутка             : 42  мс. (1,00 видеокадр)
Время предзагрузки промежутка            : 500  мс.
picpicpicpicpic
Для увеличения картинки щелкните мышкой по превью

Этот торрент недоступен для скачивания без регистрации, однако доступен по публичной magnet-ссылке (источники с публичных трекеров). Перед использованием ссылки прочтите, пожалуйста Пользовательское соглашение, а также как можно дольше оставайтесь на раздаче! Для того, чтобы скачать сам торрент-файл (который видит больше источников), а также для того, чтобы поблагодарить релизера, вам необходимо зарегистрироваться. Если регистрироваться лень - вы можете также попробовать скачать релиз по нашим партнерским ссылкам ниже.

[underverse.su].t56693.torrent
Трекер: Зарегистрирован   [ 05.08.2015 23:34 ]  

Статус: проверено (by makkol at 06.08.2015 11:20)
Поблагодарили: пока никто не поблагодарил...
Тип торрента: публичный - доступные источники с открытых трекеров: 
Размер: 1,37 GB (занимает 0,31 DVDR, для записи нужно 1 болванка DVDR/RW)
 
 
Похожие темы
Форум Тема Автор Торрент Отв. Посл. сооб.
Зарубежное кино [HDDVDRip / BDRip / WEB-DL / HDTV 1080/720р] Ярость мертвецов / Anger of the Dead (Франческо Пиконе) [2015 г., ужасы, драма, BDRip 1080p] VO + Original makkol
12 | 0

0 | 535

9

05.08.2015 23:51


Яндекс.Метрика powered by Sphinx


В Н И М А Н И Е
Сайт не распространяет и не хранит электронные версии произведений, а лишь бесплатно и без коммерческой выгоды (не требуя взамен платы,
SMS и т.д.) предоставляет доступ к создаваемому пользователями каталогу ссылок на торрент-файлы, которые содержат только списки хеш-сумм.
Убедительная просьба с жалобами обращаться напрямую к пользователю, разместившему торрент файл.

Вверх