Loading...
Error

Зона 51 / Area 51 (Орен Пели) [2015 г., ужасы, фантастика, триллер, WEB-DLRip] AVO

Статистика раздачи
Размер:  1,45 GB   |    Зарегистрирован:  1 год 4 месяца   |    Скачан:  55 раз

Полного источника не было: 4 месяца 6 дней

Сидов:  0  |  0 KB/s  ]   Личеров:  0  |  0 KB/s  ]

* - сиды/пиры с внешних источников

   
 
Автор Сообщение

makkol Пол:Муж

05-Авг-2015 23:01

Зона 51 / Area 51


Год выпуска: 2015
Жанр: ужасы, фантастика, триллер
Производство: США [Aramid Entertainment Fund, Blumhouse Productions, IM Global]
Режиссер: Орен Пели
В ролях: Рейд Уорнер, Дэррин Брагг, Бенжамин Ровнер, Елена Ник, Рой Абрамсон, Фрэнк Новак, Гленн Кэмпбелл, Conception West, Джеймс Декер, Патрик Салливан
Сюжет фильма:
Трое молодых конспирологов пытаются раскрыть тайны загадочной Зоны 51, секретной правительственной базы, где, по слухам, состоялась встреча с инопланетными существами. Ребята проникают на базу, попутно все снимая на видеокамеру. Но то, что они обнаруживают, никто из них не мог представить даже в самых страшных кошмарах…

  • Мировая премьера: 15 мая 2015


Качество видео: WEB-DLRip

Продолжительность: 01:30:53
Формат: AVI
Видео: XviD, 720x400 (16:9), 23.976 fps, 1890 kbps
Аудио: русский, авторский одноголосый закадровый (М.Яроцкий ака kyberpunk), AC3 5.1, 48 kHz, 384 kbps

Код:

General
Complete name : Area.51.2015.A1.WEB-DLRip.avi
Format : AVI
Format/Info : Audio Video Interleave
File size : 1.45 GiB
Duration : 1h 30mn
Overall bit rate : 2 283 Kbps
Writing application : VirtualDubMod 1.5.10.3 | www.virtualdub-fr.org || (build 2550/release)
Writing library : VirtualDubMod build 2550/release

Video
ID : 0
Format : MPEG-4 Visual
Format profile : Advanced Simple@L5
Format settings, BVOP : 1
Format settings, QPel : No
Format settings, GMC : No warppoints
Format settings, Matrix : Custom
Codec ID : XVID
Codec ID/Hint : XviD
Duration : 1h 30mn
Bit rate : 1 890 Kbps
Width : 720 pixels
Height : 400 pixels
Display aspect ratio : 16:9
Frame rate : 23.976 fps
Color space : YUV
Chroma subsampling : 4:2:0
Bit depth : 8 bits
Scan type : Progressive
Compression mode : Lossy
Bits/(Pixel*Frame) : 0.274
Stream size : 1.20 GiB (83%)
Writing library : XviD 73

Audio
ID : 1
Format : AC-3
Format/Info : Audio Coding 3
Mode extension : CM (complete main)
Format settings, Endianness : Big
Codec ID : 2000
Duration : 1h 30mn
Bit rate mode : Constant
Bit rate : 384 Kbps
Channel(s) : 6 channels
Channel positions : Front: L C R, Side: L R, LFE
Sampling rate : 48.0 KHz
Bit depth : 16 bits
Compression mode : Lossy
Stream size : 250 MiB (17%)
Alignment : Split accross interleaves
Interleave, duration : 42 ms (1.00 video frame)
Interleave, preload duration : 500 ms
picpicpicpicpic
Для увеличения картинки щелкните мышкой по превью

Этот торрент недоступен для скачивания без регистрации, однако доступен по публичной magnet-ссылке (источники с публичных трекеров). Перед использованием ссылки прочтите, пожалуйста Пользовательское соглашение, а также как можно дольше оставайтесь на раздаче! Для того, чтобы скачать сам торрент-файл (который видит больше источников), а также для того, чтобы поблагодарить релизера, вам необходимо зарегистрироваться. Если регистрироваться лень - вы можете также попробовать скачать релиз по нашим партнерским ссылкам ниже.

[underverse.su].t56691.torrent
Трекер: Зарегистрирован   [ 05.08.2015 23:01 ]  

Статус: проверено (by makkol at 06.08.2015 11:11)
Поблагодарили: 1 человек
Тип торрента: публичный - доступные источники с открытых трекеров: 
Размер: 1,45 GB (занимает 1/3 DVDR, для записи нужно 1 болванка DVDR/RW)
 
 
Похожие темы
Форум Тема Автор Торрент Отв. Посл. сооб.
Зарубежное кино [HDDVDRip / BDRip / WEB-DL / HDTV 1080/720р] Зона 51 / Area 51 (Орен Пели) [2015 г., ужасы, фантастика, триллер, WEB-DL 720p] AVO + Original + Subs (Eng) makkol
9 | 0

0 | 1074

50

05.08.2015 23:12


Яндекс.Метрика powered by Sphinx


В Н И М А Н И Е
Сайт не распространяет и не хранит электронные версии произведений, а лишь бесплатно и без коммерческой выгоды (не требуя взамен платы,
SMS и т.д.) предоставляет доступ к создаваемому пользователями каталогу ссылок на торрент-файлы, которые содержат только списки хеш-сумм.
Убедительная просьба с жалобами обращаться напрямую к пользователю, разместившему торрент файл.

Вверх