Loading...
Error

Эффи / Effie Gray (Ричард Лэкстон) [2014 г., драма, HDRip] Dub

Статистика раздачи
Размер:  1,47 GB   |    Зарегистрирован:  1 год 3 месяца   |    Скачан:  8 раз

Полного источника не было: 1 год

Сидов:  0  |  0 KB/s  ]   Личеров:  0  |  0 KB/s  ]

* - сиды/пиры с внешних источников

   
 
Автор Сообщение

makkol Пол:Муж

05-Авг-2015 14:41

Эффи / Effie Gray


Год выпуска: 2014
Жанр: драма
Производство: Великобритания [Sovereign Films (II)]
Режиссер: Ричард Лэкстон
В ролях: Дакота Фаннинг, Том Стёрридж, Эмма Томпсон, Джули Уолтерс, Клаудия Кардинале, Робби Колтрейн, Дэвид Суше, Дерек Джекоби, Рассел Тови, Джеймс Фокс
Сюжет фильма:
Биографический фильм, повествующий о любовном треугольнике между известным литературным критиком, философом и писателем 19 века Джоном Рёскином, его женой Эффи и протеже Рёскина, Джоном Милле. 17-летняя Эффи Грей вышла замуж за Рёскина по своей воле, однако супруги оказались очень разными по характеру. Добавляло сложностей в отношениях и то обстоятельство, что за пять лет брака Джон так не разу не прикоснулся к Эффи, утверждая после, что ее тело вызывало у него отвращение. Попав в ловушку светских условностей и безразличия мужа, Эффи в конечном итоге влюбилась в художника Джона Милле.

  • Мировая премьера: 5 октября 2014


Качество видео: HDRip

Продолжительность: 01:48:25
Формат: AVI
Видео: XviD, 720x304 (2.35:1), 24.000 fps, 1541 kbps
Аудио: русский, дублированный (iTunes), AC3 2.0, 48 kHz, 384 kbps

Код:

Общее
Полное имя                               : Effie Gray.2014.D.HDRip.1400Mb.avi
Формат                                   : AVI
Формат/Информация                        : Audio Video Interleave
Размер файла                             : 1,47 Гбайт
Продолжительность                        : 1 ч. 48 м.
Общий поток                              : 1935 Кбит/сек
Программа кодирования                    : VirtualDubMod 1.5.10.2 (build 2540/release)
Библиотека кодирования                   : VirtualDubMod build 2540/release

Видео
Идентификатор                            : 0
Формат                                   : MPEG-4 Visual
Профиль формата                          : Advanced Simple@L5
Параметр BVOP формата                    : 1
Параметр QPel формата                    : Нет
Параметр GMC формата                     : Без точки перехода
Параметр матрицы формата                 : Выборочная
Идентификатор кодека                     : XVID
Идентификатор кодека/Подсказка           : XviD
Продолжительность                        : 1 ч. 48 м.
Битрейт                                  : 1541 Кбит/сек
Ширина                                   : 720 пикселей
Высота                                   : 304 пикселя
Соотношение сторон                       : 2,35:1
Частота кадров                           : 24,000 кадра/сек
Цветовое пространство                    : YUV
Субдискретизация насыщенности            : 4:2:0
Битовая глубина                          : 8 бит
Тип развёртки                            : Прогрессивная
Метод сжатия                             : С потерями
Бит/(Пиксели*Кадры)                      : 0.293
Размер потока                            : 1,17 Гбайт (80%)
Библиотека кодирования                   : XviD 1.2.1 (UTC 2008-12-04)

Аудио
Идентификатор                            : 1
Формат                                   : AC-3
Формат/Информация                        : Audio Coding 3
Расширение режима                        : CM (complete main)
Параметр Endianness формата              : Big
Идентификатор кодека                     : 2000
Продолжительность                        : 1 ч. 48 м.
Вид битрейта                             : Постоянный
Битрейт                                  : 384 Кбит/сек
Каналы                                   : 2 канала
Расположение каналов                     : Front: L R
Частота                                  : 48,0 КГц
Битовая глубина                          : 16 бит
Метод сжатия                             : С потерями
Размер потока                            : 298 Мбайт (20%)
Выравнивание                             : Разделение по промежуткам
Продолжительность промежутка             : 42  мс. (1,00 видеокадр)
Время предзагрузки промежутка            : 500  мс.
picpicpicpicpic
Для увеличения картинки щелкните мышкой по превью

Этот торрент недоступен для скачивания без регистрации, однако доступен по публичной magnet-ссылке (источники с публичных трекеров). Перед использованием ссылки прочтите, пожалуйста Пользовательское соглашение, а также как можно дольше оставайтесь на раздаче! Для того, чтобы скачать сам торрент-файл (который видит больше источников), а также для того, чтобы поблагодарить релизера, вам необходимо зарегистрироваться. Если регистрироваться лень - вы можете также попробовать скачать релиз по нашим партнерским ссылкам ниже.

[underverse.su].t56680.torrent
Трекер: Зарегистрирован   [ 05.08.2015 14:41 ]  

Статус: T временная (by makkol at 05.08.2015 15:21)
Поблагодарили: пока никто не поблагодарил...
Тип торрента: публичный - доступные источники с открытых трекеров: 
Размер: 1,47 GB (занимает 0,33 DVDR, для записи нужно 1 болванка DVDR/RW)
 
 
Похожие темы
Форум Тема Автор Торрент Отв. Посл. сооб.
Зарубежное кино [DVDRip, Low-Res HDRip, и т.д.] Эффи / Effie Gray (Ричард Лэкстон) [2014 г., драма, биография, HDRip] VO [Lenape] Паукан
31 | 1

0 | 509

5

27.05.2015 12:27

T Зарубежное кино [HDDVDRip / BDRip / WEB-DL / HDTV 1080/720р] Эффи / Effie Gray (Ричард Лэкстон) [2014 г., драма, BDRip 720p] Dub + Original + Subs makkol
6 | 0

0 | 218

0

05.08.2015 15:01

T Зарубежное кино [HDDVDRip / BDRip / WEB-DL / HDTV 1080/720р] Эффи / Effie Gray (Ричард Лэкстон) [2014 г., драма, BDRip 1080p] Dub + Original + Subs makkol
4 | 1

0 | 358

2

05.08.2015 15:15


Яндекс.Метрика powered by Sphinx


В Н И М А Н И Е
Сайт не распространяет и не хранит электронные версии произведений, а лишь бесплатно и без коммерческой выгоды (не требуя взамен платы,
SMS и т.д.) предоставляет доступ к создаваемому пользователями каталогу ссылок на торрент-файлы, которые содержат только списки хеш-сумм.
Убедительная просьба с жалобами обращаться напрямую к пользователю, разместившему торрент файл.

Вверх