Loading...
Error

Есть топор - нет проблем / Axe to Grind (Мэтт Зеттелл) [2015 г., ужасы, триллер, WEB-DLRip] VO

Статистика раздачи
Размер:  1,37 GB   |    Зарегистрирован:  1 год 4 месяца   |    Скачан:  16 раз

Полного источника не было: 28 дней

Сидов:  0  |  0 KB/s  ]   Личеров:  0  |  0 KB/s  ]

* - сиды/пиры с внешних источников

   
 
Автор Сообщение

makkol Пол:Муж

04-Авг-2015 23:25

Есть топор - нет проблем / Axe to Grind


Год выпуска: 2015
Жанр: ужасы, триллер
Производство: США [Seraph Productions, Top Knot Films]
Режиссер: Мэтт Зеттелл
В ролях: Дэбби Рошон, Гай Торри, Мэттью Джеймс Гулбрансон, Пола Лабаредас, Мишель Томлинсон, Дэни Томпсон, Adrian Quihuis, Тони фон Холли, Рэйчел Роббинс, Келси Жуковский
Сюжет фильма:
На съемках нового фильма ужасов категории Б, отвергнутая и обиженная звезда ужастиков, начинает свою кровавую месть.

  • Мировая премьера: 3 февраля 2015


Качество видео: WEB-DLRip

Продолжительность: 01:21:10
Формат: AVI
Видео: XviD, 720x400 (16:9), 23.976 fps, 2018 kbps
Аудио: русский, любительский одноголосый закадровый (den904 & DeadSno), AC3 2.0, 48 kHz, 384 kbps

Код:

Общее
Полное имя                               : Est.topor.problem.net.2015.L2.WEBRip.1400Mb.avi
Формат                                   : AVI
Формат/Информация                        : Audio Video Interleave
Размер файла                             : 1,37 Гбайт
Продолжительность                        : 1 ч. 21 м.
Общий поток                              : 2412 Кбит/сек
Программа кодирования                    : VirtualDubMod 1.5.10.2 (build 2540/release)
Библиотека кодирования                   : VirtualDubMod build 2540/release

Видео
Идентификатор                            : 0
Формат                                   : MPEG-4 Visual
Профиль формата                          : Advanced Simple@L5
Параметр BVOP формата                    : 2
Параметр QPel формата                    : Нет
Параметр GMC формата                     : Без точки перехода
Параметр матрицы формата                 : Default (MPEG)
Идентификатор кодека                     : XVID
Идентификатор кодека/Подсказка           : XviD
Продолжительность                        : 1 ч. 21 м.
Битрейт                                  : 2018 Кбит/сек
Ширина                                   : 720 пикселей
Высота                                   : 400 пикселей
Соотношение сторон                       : 16:9
Частота кадров                           : 23,976 кадра/сек
Цветовое пространство                    : YUV
Субдискретизация насыщенности            : 4:2:0
Битовая глубина                          : 8 бит
Тип развёртки                            : Прогрессивная
Метод сжатия                             : С потерями
Бит/(Пиксели*Кадры)                      : 0.292
Размер потока                            : 1,14 Гбайт (84%)
Библиотека кодирования                   : XviD 1.2.1 (UTC 2008-12-04)

Аудио
Идентификатор                            : 1
Формат                                   : AC-3
Формат/Информация                        : Audio Coding 3
Расширение режима                        : CM (complete main)
Параметр Endianness формата              : Big
Идентификатор кодека                     : 2000
Продолжительность                        : 1 ч. 21 м.
Вид битрейта                             : Постоянный
Битрейт                                  : 384 Кбит/сек
Каналы                                   : 2 канала
Расположение каналов                     : Front: L R
Частота                                  : 48,0 КГц
Метод сжатия                             : С потерями
Размер потока                            : 223 Мбайт (16%)
Выравнивание                             : Разделение по промежуткам
Продолжительность промежутка             : 42  мс. (1,00 видеокадр)
Время предзагрузки промежутка            : 500  мс.
picpicpicpicpic
Для увеличения картинки щелкните мышкой по превью

Этот торрент недоступен для скачивания без регистрации, однако доступен по публичной magnet-ссылке (источники с публичных трекеров). Перед использованием ссылки прочтите, пожалуйста Пользовательское соглашение, а также как можно дольше оставайтесь на раздаче! Для того, чтобы скачать сам торрент-файл (который видит больше источников), а также для того, чтобы поблагодарить релизера, вам необходимо зарегистрироваться. Если регистрироваться лень - вы можете также попробовать скачать релиз по нашим партнерским ссылкам ниже.

[underverse.su].t56662.torrent
Трекер: Зарегистрирован   [ 04.08.2015 23:25 ]  

Статус: проверено (by makkol at 05.08.2015 09:28)
Поблагодарили: 1 человек
Тип торрента: публичный - доступные источники с открытых трекеров: 
Размер: 1,37 GB (занимает 0,31 DVDR, для записи нужно 1 болванка DVDR/RW)
 
 

Яндекс.Метрика powered by Sphinx


В Н И М А Н И Е
Сайт не распространяет и не хранит электронные версии произведений, а лишь бесплатно и без коммерческой выгоды (не требуя взамен платы,
SMS и т.д.) предоставляет доступ к создаваемому пользователями каталогу ссылок на торрент-файлы, которые содержат только списки хеш-сумм.
Убедительная просьба с жалобами обращаться напрямую к пользователю, разместившему торрент файл.

Вверх