Loading...
Error

Мы должны выбраться из этого места / Bad Turn Worse (Саймон Хоукинс, Зик Хоукинс) [2013 г., триллер, драма, криминал, HDRip] VO

Статистика раздачи
Размер:  1,36 GB   |    Зарегистрирован:  1 год 4 месяца   |    Скачан:  16 раз

Полного источника не было: 1 год

Сидов:  0  |  0 KB/s  ]   Личеров:  0  |  0 KB/s  ]

* - сиды/пиры с внешних источников

   
 
Автор Сообщение

makkol Пол:Муж

04-Авг-2015 14:39

Мы должны выбраться из этого места / Bad Turn Worse


Год выпуска: 2013
Жанр: триллер, драма, криминал
Производство: США [Rough & Tumble Films]
Режиссер: Саймон Хоукинс, Зик Хоукинс
В ролях: Маккензи Дэвис, Логан Хаффман, Джереми Аллен Уайт, Уильям Дивэйн, Джон Грайз, Марк Пеллегрино, Эразма Мартинес, Эшли Адамс, Келли Кинстли Кемпбелл, Ти Адамс
Сюжет фильма:
Трое техасских подростков надеятся вырваться из непросветной тоски жизнь в убогом городке, но оказываются втянуты в разборки организованной преступности, когда один из них украл деньги не у того человека.

  • Мировая премьера: 7 сентября 2013


Перевод: anton1
Озвучивание: datynet

Качество видео: HDRip

Продолжительность: 01:28:35
Формат: AVI
Видео: XviD, 720х304, 25.000 fps, 2002 kbps
Аудио: русский, любительский одноголосый закадровый, AC3 5.1, 48 kHz, 192 kbps

Код:

Общее
Полное имя                               : Bad.Turn.Worse.L1.HDRip.avi
Формат                                   : AVI
Формат/Информация                        : Audio Video Interleave
Размер файла                             : 1,36 Гбайт
Продолжительность                        : 1 ч. 28 м.
Общий поток                              : 2204 Кбит/сек
Программа кодирования                    : VirtualDubMod 1.5.10.3 | www.virtualdub-fr.org || (build 2550/release)
Библиотека кодирования                   : VirtualDubMod build 2550/release

Видео
Идентификатор                            : 0
Формат                                   : MPEG-4 Visual
Профиль формата                          : Advanced Simple@L5
Параметр BVOP формата                    : 1
Параметр QPel формата                    : Нет
Параметр GMC формата                     : Без точки перехода
Параметр матрицы формата                 : Default (H.263)
Идентификатор кодека                     : XVID
Идентификатор кодека/Подсказка           : XviD
Продолжительность                        : 1 ч. 28 м.
Битрейт                                  : 2002 Кбит/сек
Ширина                                   : 720 пикселей
Высота                                   : 304 пикселя
Соотношение сторон                       : 2,35:1
Частота кадров                           : 25,000 кадров/сек
Цветовое пространство                    : YUV
Субдискретизация насыщенности            : 4:2:0
Битовая глубина                          : 8 бит
Тип развёртки                            : Прогрессивная
Метод сжатия                             : С потерями
Бит/(Пиксели*Кадры)                      : 0.350
Размер потока                            : 1,19 Гбайт (87%)
Библиотека кодирования                   : XviD 1.2.1 (UTC 2008-12-04)

Аудио
Идентификатор                            : 1
Формат                                   : AC-3
Формат/Информация                        : Audio Coding 3
Расширение режима                        : CM (complete main)
Параметр Endianness формата              : Big
Идентификатор кодека                     : 2000
Продолжительность                        : 1 ч. 28 м.
Вид битрейта                             : Постоянный
Битрейт                                  : 192 Кбит/сек
Каналы                                   : 6 каналов
Расположение каналов                     : Front: L C R, Side: L R, LFE
Частота                                  : 48,0 КГц
Битовая глубина                          : 16 бит
Метод сжатия                             : С потерями
Размер потока                            : 122 Мбайт (9%)
Выравнивание                             : Разделение по промежуткам
picpicpic
Для увеличения картинки щелкните мышкой по превью

Этот торрент недоступен для скачивания без регистрации, однако доступен по публичной magnet-ссылке (источники с публичных трекеров). Перед использованием ссылки прочтите, пожалуйста Пользовательское соглашение, а также как можно дольше оставайтесь на раздаче! Для того, чтобы скачать сам торрент-файл (который видит больше источников), а также для того, чтобы поблагодарить релизера, вам необходимо зарегистрироваться. Если регистрироваться лень - вы можете также попробовать скачать релиз по нашим партнерским ссылкам ниже.

[underverse.su].t56649.torrent
Трекер: Зарегистрирован   [ 04.08.2015 14:39 ]  

Статус: проверено (by makkol at 04.08.2015 15:21)
Поблагодарили: пока никто не поблагодарил...
Тип торрента: публичный - доступные источники с открытых трекеров: 
Размер: 1,36 GB (занимает 0,31 DVDR, для записи нужно 1 болванка DVDR/RW)
 
 
Похожие темы
Форум Тема Автор Торрент Отв. Посл. сооб.
Зарубежное кино [HDDVDRip / BDRip / WEB-DL / HDTV 1080/720р] Мы должны выбраться из этого места / Bad Turn Worse (Саймон Хоукинс, Зик Хоукинс) [2013 г., триллер, драма, криминал, BDRip 720p] VO + Original makkol
6 | 0

0 | 478

3

04.08.2015 14:55

Зарубежное кино [HDDVDRip / BDRip / WEB-DL / HDTV 1080/720р] Мы должны выбраться из этого места / Bad Turn Worse (Саймон Хоукинс, Зик Хоукинс) [2013 г., триллер, драма, криминал, BDRip 1080p] VO + Original makkol
1 | 0

0 | 559

2

04.08.2015 15:08


Яндекс.Метрика powered by Sphinx


В Н И М А Н И Е
Сайт не распространяет и не хранит электронные версии произведений, а лишь бесплатно и без коммерческой выгоды (не требуя взамен платы,
SMS и т.д.) предоставляет доступ к создаваемому пользователями каталогу ссылок на торрент-файлы, которые содержат только списки хеш-сумм.
Убедительная просьба с жалобами обращаться напрямую к пользователю, разместившему торрент файл.

Вверх