Loading...
Error

Невинность на продажу / Trade of Innocents (Кристофер М. Бессетт) [2012 г., триллер, драма, DVDRip] DVO

Статистика раздачи
Размер:  1,38 GB   |    Зарегистрирован:  1 год 3 месяца   |    Скачан:  15 раз

Полного источника не было: 2 дня 15 часов

Сидов:  0  |  0 KB/s  ]   Личеров:  0  |  0 KB/s  ]

* - сиды/пиры с внешних источников

   
 
Автор Сообщение

makkol Пол:Муж

04-Авг-2015 14:19

Невинность на продажу / Trade of Innocents
«Правосудие нуждается в герое»


Год выпуска: 2012
Жанр: триллер, драма
Производство: США , Таиланд [Dean River Productions, Thai Occidental Productions]
Режиссер: Кристофер М. Бессетт
В ролях: Дермот Малруни, Мира Сорвино, Джон Биллингсли, Кью Чинх, Витхая Пансрингарм, Сахайак Бунсанакит, Треу Трэн, Джирантанин Питакпорнтракул, Доллар Тан, Миа Сунь...
Сюжет фильма:
История разворачивается в глухих закоулках туристического города в современной Юго-Восточной Азии. Здесь, в грязной комнате на кровати с грязными простынями маленькая девочка ждет следующего мужчину.Алекс, человек, который изучает торговлю людьми, изображает ее следующего клиента. Герой картины «Невинность на продажу» ведет переговоры с ее сутенером, якобы намереваясь использовать ребенка. Клэр, жена Алекса, тем временем присоединяется к группе добровольцев, работающих в приюте для спасенных девочек.

  • Мировая премьера: 28 сентября 2012


Качество видео: DVDRip

Продолжительность: 01:30:26
Формат: AVI
Видео: XviD, 720x304 (2.35:1), 23.976 fps, 1989 kbps
Аудио: русский, любительский двухголосый закадровый (2D), AC3 2.0, 48 kHz, 192 kbps

Код:

General
Complete name : Trade.of.Innocents.DVDRip.2012.avi
Format : AVI
Format/Info : Audio Video Interleave
File size : 1.38 GiB
Duration : 1h 30mn
Overall bit rate : 2 190 Kbps
Writing application : VirtualDubMod 1.5.10.3 | www.virtualdub-fr.org || (build 2550/release)
Writing library : VirtualDubMod build 2550/release

Video
ID : 0
Format : MPEG-4 Visual
Format profile : Advanced Simple@L5
Format settings, BVOP : 1
Format settings, QPel : No
Format settings, GMC : No warppoints
Format settings, Matrix : Default (MPEG)
Codec ID : XVID
Codec ID/Hint : XviD
Duration : 1h 30mn
Bit rate : 1 989 Kbps
Width : 720 pixels
Height : 304 pixels
Display aspect ratio : 2.35:1
Frame rate : 23.976 fps
Color space : YUV
Chroma subsampling : 4:2:0
Bit depth : 8 bits
Scan type : Progressive
Compression mode : Lossy
Bits/(Pixel*Frame) : 0.379
Stream size : 1.26 GiB (91%)
Writing library : XviD 1.2.1 (UTC 2008-12-04)

Audio
ID : 1
Format : AC-3
Format/Info : Audio Coding 3
Mode extension : CM (complete main)
Format settings, Endianness : Big
Codec ID : 2000
Duration : 1h 30mn
Bit rate mode : Constant
Bit rate : 192 Kbps
Channel(s) : 2 channels
Channel positions : Front: L R
Sampling rate : 48.0 KHz
Bit depth : 16 bits
Compression mode : Lossy
Stream size : 124 MiB (9%)
Alignment : Split accross interleaves
Interleave, duration : 42 ms (1.00 video frame)
Interleave, preload duration : 500 ms
picpicpicpicpic
Для увеличения картинки щелкните мышкой по превью

Этот торрент недоступен для скачивания без регистрации, однако доступен по публичной magnet-ссылке (источники с публичных трекеров). Перед использованием ссылки прочтите, пожалуйста Пользовательское соглашение, а также как можно дольше оставайтесь на раздаче! Для того, чтобы скачать сам торрент-файл (который видит больше источников), а также для того, чтобы поблагодарить релизера, вам необходимо зарегистрироваться. Если регистрироваться лень - вы можете также попробовать скачать релиз по нашим партнерским ссылкам ниже.

[underverse.su].t56648.torrent
Трекер: Зарегистрирован   [ 04.08.2015 14:19 ]  

Статус: проверено (by makkol at 04.08.2015 15:20)
Поблагодарили: пока никто не поблагодарил...
Тип торрента: публичный - доступные источники с открытых трекеров: 
Размер: 1,38 GB (занимает 0,32 DVDR, для записи нужно 1 болванка DVDR/RW)
 
 
Похожие темы
Форум Тема Автор Торрент Отв. Посл. сооб.
Зарубежное кино [DVDRip, Low-Res HDRip, и т.д.] Невинность / Uskyld (Сара Йонсен) [2012 г., драма, DVDRip] VO [den904] + Original Паукан
0 | 1

0 | 1341

6

14.05.2013 10:17

Зарубежное кино [DVDRip, Low-Res HDRip, и т.д.] Невинность на продажу / Lazy Hazy Crazy (Люк Е Сам) [2015 г., драма, эротика, HDTVRip] DVO makkol
241 | 4

0 | 520

28

13.06.2016 13:20


Яндекс.Метрика powered by Sphinx


В Н И М А Н И Е
Сайт не распространяет и не хранит электронные версии произведений, а лишь бесплатно и без коммерческой выгоды (не требуя взамен платы,
SMS и т.д.) предоставляет доступ к создаваемому пользователями каталогу ссылок на торрент-файлы, которые содержат только списки хеш-сумм.
Убедительная просьба с жалобами обращаться напрямую к пользователю, разместившему торрент файл.

Вверх