Loading...
Error

Идеальный голос 2 / Pitch Perfect 2 (Элизабет Бэнкс) [2015 г., комедия, музыка, HDRip] MVO

Статистика раздачи
Размер:  1,37 GB   |    Зарегистрирован:  1 год 3 месяца   |    Скачан:  9 раз

Полного источника не было: 10 месяцев

Сидов:  0  |  0 KB/s  ]   Личеров:  0  |  0 KB/s  ]

* - сиды/пиры с внешних источников

   
 
Автор Сообщение

makkol Пол:Муж

04-Авг-2015 13:15

Идеальный голос 2 / Pitch Perfect 2
«Самые крутые девчонки возвращаются»


Год выпуска: 2015
Жанр: комедия, музыка
Производство: США [Brownstone Productions, Gold Circle Films, Universal Pictures]
Режиссер: Элизабет Бэнкс
В ролях: Анна Кендрик, Ребел Уилсон, Хейли Стайнфелд, Бриттани Сноу, Скайлар Эстин, Адам Дивайн, Кэти Сагал, Анна Кэмп, Бен Платт, Алексис Нэп
Сюжет фильма:
Самые крутые девчонки возвращаются! Теперь у них все по-взрослому: ремиксы — моднее, каблуки — выше, юбки — короче. Но идеальный голос всегда на месте.

  • Мировая премьера: 20 апреля 2015
  • Российская премьера: 14 мая 2015


Качество видео: HDRip

Продолжительность: 01:54:38
Формат: AVI
Видео: XviD, 720x384 (1.85:1), 23.976 fps, 1504 kbps
Аудио: русский, любительский многоголосый закадровый (Причудики), MP3 2.0, 48 kHz, 192 kbps

Код:

General
Complete name : Golos.2.2015.MVO.HDRip.1400Mb.PROPER.avi
Format : AVI
Format/Info : Audio Video Interleave
File size : 1.37 GiB
Duration : 1h 54mn
Overall bit rate : 1 705 Kbps
Writing application : VirtualDubMod 1.5.10.2 (build 2540/release)
Writing library : VirtualDubMod build 2540/release

Video
ID : 0
Format : MPEG-4 Visual
Format profile : Advanced Simple@L5
Format settings, BVOP : 2
Format settings, QPel : No
Format settings, GMC : No warppoints
Format settings, Matrix : Default (MPEG)
Codec ID : XVID
Codec ID/Hint : XviD
Duration : 1h 54mn
Bit rate : 1 504 Kbps
Width : 720 pixels
Height : 384 pixels
Display aspect ratio : 1.85:1
Frame rate : 23.976 fps
Color space : YUV
Chroma subsampling : 4:2:0
Bit depth : 8 bits
Scan type : Progressive
Compression mode : Lossy
Bits/(Pixel*Frame) : 0.227
Stream size : 1.21 GiB (88%)
Writing library : XviD 1.2.1 (UTC 2008-12-04)

Audio
ID : 1
Format : MPEG Audio
Format version : Version 1
Format profile : Layer 3
Mode : Joint stereo
Mode extension : MS Stereo
Codec ID : 55
Codec ID/Hint : MP3
Duration : 1h 54mn
Bit rate mode : Constant
Bit rate : 192 Kbps
Channel(s) : 2 channels
Sampling rate : 48.0 KHz
Compression mode : Lossy
Stream size : 158 MiB (11%)
Alignment : Aligned on interleaves
Interleave, duration : 42 ms (1.00 video frame)
Interleave, preload duration : 504 ms
picpicpicpicpic
Для увеличения картинки щелкните мышкой по превью

Этот торрент недоступен для скачивания без регистрации, однако доступен по публичной magnet-ссылке (источники с публичных трекеров). Перед использованием ссылки прочтите, пожалуйста Пользовательское соглашение, а также как можно дольше оставайтесь на раздаче! Для того, чтобы скачать сам торрент-файл (который видит больше источников), а также для того, чтобы поблагодарить релизера, вам необходимо зарегистрироваться. Если регистрироваться лень - вы можете также попробовать скачать релиз по нашим партнерским ссылкам ниже.

[underverse.su].t56645.torrent
Трекер: Зарегистрирован   [ 04.08.2015 13:15 ]  

Статус: проверено (by makkol at 04.08.2015 15:11)
Поблагодарили: пока никто не поблагодарил...
Тип торрента: публичный - доступные источники с открытых трекеров: 
Размер: 1,37 GB (занимает 0,31 DVDR, для записи нужно 1 болванка DVDR/RW)
 
 
Похожие темы
Форум Тема Автор Торрент Отв. Посл. сооб.
T Зарубежное кино [DVDRip, Low-Res HDRip, и т.д.] Идеальный мужчина / Un homme ideal (Ян Гозлан / Yann Gozlan) [2015 г., триллер, HDRip] MVO (чистый звук) + Original (Fre) + Sub (Eng) 90ytr90
555 | 16

1 | 370

6

18.09.2016 18:02

Зарубежное кино [DVDRip, Low-Res HDRip, и т.д.] Идеальный студент / The Perfect Student (Майкл Фейфер) [2011 г., триллер, криминал, детектив, DVDRip] MVO + Original RG NewCinema
0 | 0

0 | 1591

30

26.10.2012 08:22

Зарубежное кино [DVDRip, Low-Res HDRip, и т.д.] Идеальный голос / Pitch Perfect (Джейсон Мур) [2012 г., комедия, музыка, HDRip] VO (zamez) 90ytr90
1 | 0

2 | 528

3

22.12.2012 20:15

Зарубежное кино [DVDRip, Low-Res HDRip, и т.д.] Идеальный голос / Pitch Perfect (Джейсон Мур) [2012 г., комедия, музыка, HDRip] VO (zamez) + Original 90ytr90
8 | 1

0 | 685

15

23.12.2012 08:25

Зарубежное кино [DVDRip, Low-Res HDRip, и т.д.] Идеальный голос / Pitch Perfect (Джейсон Мур / Jason Moore) [2012, комедия, музыка, HDRip] VO [zamez] Garnett
41 | 0

0 | 1320

7

08.01.2013 11:48

Зарубежное кино [DVDRip, Low-Res HDRip, и т.д.] Идеальный голос / Pitch Perfect (Джейсон Мур / Jason Moore) [2012 г., мелодрама, комедия, музыка, HDRip] Dub + Original Gaarochi
3 | 0

0 | 1223

19

09.05.2013 19:30

Зарубежное кино [DVDRip, Low-Res HDRip, и т.д.] Идеальный голос / Pitch Perfect ( Джейсон Мур / Jason Moore) [2013 г., мелодрама, комедия, музыка, HDRip] Dub Gaarochi
0 | 0

0 | 913

24

09.05.2013 19:56

Зарубежное кино [DVDRip, Low-Res HDRip, и т.д.] Идеальный конец / A Perfect Ending (Николь Конн) [2012 г., драма, DVDRip] VO Паукан
4 | 0

0 | 896

29

05.02.2014 15:48

Зарубежное кино [DVDRip, Low-Res HDRip, и т.д.] Идеальный шторм / The Perfect Storm (Вольфганг Петерсен) [2000 г., боевик, триллер, драма, приключения, HDRip] Dub ultarasbarcelona
17 | 0

0 | 648

14

25.04.2015 16:41

Зарубежное кино [DVDRip, Low-Res HDRip, и т.д.] Идеальный голос 2 / Pitch Perfect 2 (Элизабет Бэнкс) [2015 г., комедия, музыка, WEBRip] MVO makkol
16 | 0

0 | 565

17

18.07.2015 15:21


Яндекс.Метрика powered by Sphinx


В Н И М А Н И Е
Сайт не распространяет и не хранит электронные версии произведений, а лишь бесплатно и без коммерческой выгоды (не требуя взамен платы,
SMS и т.д.) предоставляет доступ к создаваемому пользователями каталогу ссылок на торрент-файлы, которые содержат только списки хеш-сумм.
Убедительная просьба с жалобами обращаться напрямую к пользователю, разместившему торрент файл.

Вверх