Loading...
Error

Пробуждающая совесть / Skammerens datter (Кеннет Кайнц) [2015 г., приключения, фэнтези, WEB-DLRip] VO

Статистика раздачи
Размер:  1,46 GB   |    Зарегистрирован:  1 год 4 месяца   |    Скачан:  35 раз

Полного источника не было: 8 дней

Сидов:  0  |  0 KB/s  ]   Личеров:  0  |  0 KB/s  ]

* - сиды/пиры с внешних источников

   
 
Автор Сообщение

makkol Пол:Муж

03-Авг-2015 22:56

Пробуждающая совесть / Skammerens datter
«Истина - самое острое оружие»


Год выпуска: 2015
Жанр: приключения, фэнтези
Производство: Дания [Nepenthe Film]
Режиссер: Кеннет Кайнц
В ролях: Якоб Офтебро, Эллан Хайд, Мария Бонневи, Сёрен Маллинг, Олаф Йоханнессен, Стина Экблад, Петер Плаугборг, Лаура Бро, Роланд Мюллер, Йоуханн Г. Йоуханнссон
Сюжет фильма:
Дина унаследовала от матери сверхъестественный дар. Она может заглядывать в души людей, заставляя тех испытывать стыд за свои поступки. Когда единственного наследника престола обвинили в убийстве венценосной семьи, мать девочки обманом завлекают в замок, чтобы заставить обвиняемого сознаться в преступлении. Та отказывается использовать свою силу во зло и попадает в заточение. Теперь Дине предстоит раскрыть правду, попав в эпицентр борьбы за власть и подвергнув опасности собственную жизнь. В фэнтезийном мире Средневековья, где есть место драконам и настоящей магии, девочку и её семью ждут приключения и справедливая цель — утвердить на престоле законного наследника.

  • Мировая премьера: 26 марта 2015


Перевод: Михаил Васильев
Озвучивание: Lord32x

Качество видео: WEB-DLRip

Продолжительность: 01:32:14
Формат: AVI
Видео: XviD, 720x304 (2.35:1), 25.000 fps, 1879 kbps
Аудио: русский, любительский одноголосый закадровый, AC3 5.1, 48 kHz, 384 kbps

Код:

General
Complete name : KinoRay.Skammerens.Datter.2015.WEB-DLRip.1500MB.Lord32x.Studio.avi
Format : AVI
Format/Info : Audio Video Interleave
File size : 1.46 GiB
Duration : 1h 32mn
Overall bit rate : 2 273 Kbps
Writing application : VirtualDubMod 1.5.10.3 | | (build 2550/release)
Writing library : VirtualDubMod build 2550/release

Video
ID : 0
Format : MPEG-4 Visual
Format profile : Advanced Simple@L5
Format settings, BVOP : 1
Format settings, QPel : No
Format settings, GMC : No warppoints
Format settings, Matrix : Default (H.263)
Codec ID : XVID
Codec ID/Hint : XviD
Duration : 1h 32mn
Bit rate : 1 879 Kbps
Width : 720 pixels
Height : 304 pixels
Display aspect ratio : 2.35:1
Frame rate : 25.000 fps
Color space : YUV
Chroma subsampling : 4:2:0
Bit depth : 8 bits
Scan type : Progressive
Compression mode : Lossy
Bits/(Pixel*Frame) : 0.343
Stream size : 1.21 GiB (83%)
Writing library : XviD 1.2.1 (UTC 2008-12-04)

Audio
ID : 1
Format : AC-3
Format/Info : Audio Coding 3
Mode extension : CM (complete main)
Format settings, Endianness : Big
Codec ID : 2000
Duration : 1h 32mn
Bit rate mode : Constant
Bit rate : 384 Kbps
Channel(s) : 6 channels
Channel positions : Front: L C R, Side: L R, LFE
Sampling rate : 48.0 KHz
Bit depth : 16 bits
Compression mode : Lossy
Stream size : 253 MiB (17%)
Alignment : Split accross interleaves
Interleave, duration : 40 ms (1.00 video frame)
Interleave, preload duration : 500 ms
Релиз:

picpicpicpicpic
Для увеличения картинки щелкните мышкой по превью

Этот торрент недоступен для скачивания без регистрации, однако доступен по публичной magnet-ссылке (источники с публичных трекеров). Перед использованием ссылки прочтите, пожалуйста Пользовательское соглашение, а также как можно дольше оставайтесь на раздаче! Для того, чтобы скачать сам торрент-файл (который видит больше источников), а также для того, чтобы поблагодарить релизера, вам необходимо зарегистрироваться. Если регистрироваться лень - вы можете также попробовать скачать релиз по нашим партнерским ссылкам ниже.

[underverse.su].t56638.torrent
Трекер: Зарегистрирован   [ 03.08.2015 22:56 ]  

Статус: проверено (by makkol at 04.08.2015 11:37)
Поблагодарили: 1 человек
Тип торрента: публичный - доступные источники с открытых трекеров: 
Размер: 1,46 GB (занимает 0,33 DVDR, для записи нужно 1 болванка DVDR/RW)
 
 
Похожие темы
Форум Тема Автор Торрент Отв. Посл. сооб.
Зарубежное кино [DVDRip, Low-Res HDRip, и т.д.] Пробуждающийся лес / Wake Wood (Дэвид Китинг) [2009 г., ужасы, триллер, драма, HDRip] H. Ledger
0 | 0

0 | 591

16

03.05.2012 00:22

Зарубежное кино [HDDVDRip / BDRip / WEB-DL / HDTV 1080/720р] Пробуждающая совесть / Skammerens datter (Кеннет Кайнц) [2015 г., приключения, фэнтези, WEB-DL 720p] VO + Original makkol
15 | 0

0 | 608

13

03.08.2015 23:13

Зарубежное кино [HDDVDRip / BDRip / WEB-DL / HDTV 1080/720р] Пробуждающая совесть / Skammerens datter (Кеннет Кайнц) [2015 г., приключения, фэнтези, WEB-DL 1080p] VO + Original + Subs makkol
5 | 0

0 | 797

22

03.08.2015 23:27

Документальное кино [HDDVDRip / BDRip / WEB-DL / HDTV 1080/720р] Пробуждающаяся планета (Восходы) / Sunrise Earth (Дэвид Коновер / David Conover) [2004-2008, документальный, релакс, BDRip 720p] 45 эпизодов (+ 2 бонуса) uzi2009
1 | 0

0 | 706

4

09.03.2014 09:04


Яндекс.Метрика powered by Sphinx


В Н И М А Н И Е
Сайт не распространяет и не хранит электронные версии произведений, а лишь бесплатно и без коммерческой выгоды (не требуя взамен платы,
SMS и т.д.) предоставляет доступ к создаваемому пользователями каталогу ссылок на торрент-файлы, которые содержат только списки хеш-сумм.
Убедительная просьба с жалобами обращаться напрямую к пользователю, разместившему торрент файл.

Вверх