Loading...
Error

Добро пожаловать в Гармонию / Вымирание / Extinction (Мигель Анхель Вивас) [2015 г., ужасы, фантастика, драма, WEB-DLRip] DVO

Статистика раздачи
Размер:  1,45 GB   |    Зарегистрирован:  1 год 4 месяца   |    Скачан:  24 раза

Полного источника не было: 9 месяцев

Сидов:  0  |  0 KB/s  ]   Личеров:  0  |  0 KB/s  ]

* - сиды/пиры с внешних источников

   
 
Автор Сообщение

makkol Пол:Муж

03-Авг-2015 22:17

Добро пожаловать в Гармонию / Вымирание / Extinction
«Они последние»


Год выпуска: 2015
Жанр: ужасы, фантастика, драма
Производство: Испания , Франция , США , Венгрия [La Ferme! Productions, Laokoon Filmgroup, Ombra Films, Telefonica Studios, Vaca Films]
Режиссер: Мигель Анхель Вивас
В ролях: Мэттью Фокс, Джеффри Донован, Куинн Маккоулган, Валерия Веро, Клара Лаго, Мэтт Девере, Алекс Хафнер, Джереми Вилер
Сюжет фильма:
После нескольких сотен тысяч лет эволюции и превосходства, люди были почти уничтожены с лица Земли. В течение всего лишь нескольких дней инфекция превратила их в диких существ без интеллекта, они стали злыми и безжалостными. Через семь лет после этого, мы находим небольшой городок — Harmony, покрытый многолетними снегами. Двое мужчин, давние друзья Патрик и Джек, и дочь Джека, Лу, — единственные оставшиеся в живых. Тем не менее, они не общаются или даже не признают друг друга. Что-то ужасное произошло между ними и глубокая неумолимая ненависть прекратила их дружбу давным-давно.

  • Мировая премьера: 18 июля 2015


Перевод: Сергей Скворцов
Озвучивание: 2D (den904 & DeadSno)

Качество видео: WEB-DLRip

Продолжительность: 01:52:44
Формат: AVI
Видео: XviD, 720x304 (2.35:1), 23.976 fps, 1452 kbps
Аудио: русский, любительский двухголосый закадровый, AC3 5.1, 48 kHz, 384 kbps

Код:

Общее
Полное имя                               : Extinction.2015.L2.WEB-DLRip.1.45.Gb.avi
Формат                                   : AVI
Формат/Информация                        : Audio Video Interleave
Размер файла                             : 1,45 Гбайт
Продолжительность                        : 1 ч. 52 м.
Общий поток                              : 1845 Кбит/сек
Программа кодирования                    : VirtualDubMod 1.5.10.3 | www.virtualdub-fr.org || (build 2550/release)
Библиотека кодирования                   : VirtualDubMod build 2550/release

Видео
Идентификатор                            : 0
Формат                                   : MPEG-4 Visual
Профиль формата                          : Advanced Simple@L5
Параметр BVOP формата                    : 1
Параметр QPel формата                    : Нет
Параметр GMC формата                     : Без точки перехода
Параметр матрицы формата                 : Выборочная
Идентификатор кодека                     : XVID
Идентификатор кодека/Подсказка           : XviD
Продолжительность                        : 1 ч. 52 м.
Битрейт                                  : 1452 Кбит/сек
Ширина                                   : 720 пикселей
Высота                                   : 304 пикселя
Соотношение сторон                       : 2,35:1
Частота кадров                           : 23,976 кадра/сек
Цветовое пространство                    : YUV
Субдискретизация насыщенности            : 4:2:0
Битовая глубина                          : 8 бит
Тип развёртки                            : Прогрессивная
Метод сжатия                             : С потерями
Бит/(Пиксели*Кадры)                      : 0.277
Размер потока                            : 1,14 Гбайт (79%)
Библиотека кодирования                   : XviD 73

Аудио
Идентификатор                            : 1
Формат                                   : AC-3
Формат/Информация                        : Audio Coding 3
Расширение режима                        : CM (complete main)
Параметр Endianness формата              : Big
Идентификатор кодека                     : 2000
Продолжительность                        : 1 ч. 52 м.
Вид битрейта                             : Постоянный
Битрейт                                  : 384 Кбит/сек
Каналы                                   : 6 каналов
Расположение каналов                     : Front: L C R, Side: L R, LFE
Частота                                  : 48,0 КГц
Битовая глубина                          : 16 бит
Метод сжатия                             : С потерями
Размер потока                            : 310 Мбайт (21%)
Выравнивание                             : Разделение по промежуткам
Продолжительность промежутка             : 42  мс. (1,00 видеокадр)
Время предзагрузки промежутка            : 500  мс.
picpicpicpicpic
Для увеличения картинки щелкните мышкой по превью

Этот торрент недоступен для скачивания без регистрации, однако доступен по публичной magnet-ссылке (источники с публичных трекеров). Перед использованием ссылки прочтите, пожалуйста Пользовательское соглашение, а также как можно дольше оставайтесь на раздаче! Для того, чтобы скачать сам торрент-файл (который видит больше источников), а также для того, чтобы поблагодарить релизера, вам необходимо зарегистрироваться. Если регистрироваться лень - вы можете также попробовать скачать релиз по нашим партнерским ссылкам ниже.

[underverse.su].t56636.torrent
Трекер: Зарегистрирован   [ 03.08.2015 22:17 ]  

Статус: проверено (by makkol at 04.08.2015 11:45)
Поблагодарили: пока никто не поблагодарил...
Тип торрента: публичный - доступные источники с открытых трекеров: 
Размер: 1,45 GB (занимает 1/3 DVDR, для записи нужно 1 болванка DVDR/RW)
 
 
Похожие темы
Форум Тема Автор Торрент Отв. Посл. сооб.
Зарубежное кино [DVDRip, Low-Res HDRip, и т.д.] Добро пожаловать на Север / Benvenuti al nord (Люка Миньеро) [2012 г., комедия, DVDRip] nemos
0 | 0

2 | 1090

18

20.08.2012 16:43

Зарубежное кино [DVDRip, Low-Res HDRip, и т.д.] Добро пожаловать на борт / Bienvenue a bord (Эрик Лавэн) [2011 г., комедия, HDRip] 90ytr90
2 | 0

0 | 793

28

16.09.2012 09:02

Зарубежное кино [DVDRip, Low-Res HDRip, и т.д.] Добро пожаловать в капкан / Welcome to the Punch (Эрен Криви) [2013 г., боевик, триллер, криминал, приключения, WEB-DLRip] AVO [А. Дольский] RG NewCinema
4 | 1

0 | 3455

63

02.04.2013 11:09

Зарубежное кино [DVDRip, Low-Res HDRip, и т.д.] Добро пожаловать в мотель Бейтса / The Bates Haunting (Байрон Турк) [2012 г., ужасы, триллер, WEB-DLRip] DVO Чертёнок
1 | 0

0 | 883

13

14.08.2013 10:30

Зарубежное кино [DVDRip, Low-Res HDRip, и т.д.] Добро пожаловать в Лэйквью / Lakeview Terrace (Нил ЛаБут / Neil LaBute) [2008 г., триллер, драма, криминал, HDRip] Паукан
1 | 0

0 | 952

20

16.08.2013 14:33

Зарубежное кино [DVDRip, Low-Res HDRip, и т.д.] Добро пожаловать в капкан / Добро пожаловать в Панч / Welcome to the Punch (Эрен Криви / Eran Creevy) [2013 г., боевик, триллер, криминал, BDRip] AVO (А.Дольский) + Original 90ytr90
0 | 0

0 | 2290

30

11.10.2013 13:24

T Зарубежное кино [DVDRip, Low-Res HDRip, и т.д.] Добро пожаловать в Нью-Йорк / Welcome to New York (Абель Феррара) [2014 г., драма, WEB-DLRip] MVO Паукан
8 | 0

0 | 952

19

05.08.2014 09:45

Зарубежное кино [DVDRip, Low-Res HDRip, и т.д.] Добро пожаловать в Нью-Йорк / Welcome to New York (Абель Феррара / Abel Ferrara) [2014 г., драма, DVDRip] MVO 90ytr90
3 | 0

0 | 1029

26

22.08.2014 10:35

Зарубежное кино [DVDRip, Low-Res HDRip, и т.д.] Добро пожаловать в Нью-Йорк / Welcome to New York (Абель Феррара / Abel Ferrara) [2014 г., драма, DVDRip] MVO + Original (Eng) 90ytr90
0 | 0

0 | 1187

24

22.08.2014 10:41

Зарубежное кино [DVDRip, Low-Res HDRip, и т.д.] Добро пожаловать в Нью-Йорк / Welcome to New York (Абель Феррара) [2014 г., Драма, BDRip] MVO (RUS, Лицензия) + Original (ENG) Ведьмочка
1 | 0

1 | 855

5

13.10.2014 10:36


Яндекс.Метрика powered by Sphinx


В Н И М А Н И Е
Сайт не распространяет и не хранит электронные версии произведений, а лишь бесплатно и без коммерческой выгоды (не требуя взамен платы,
SMS и т.д.) предоставляет доступ к создаваемому пользователями каталогу ссылок на торрент-файлы, которые содержат только списки хеш-сумм.
Убедительная просьба с жалобами обращаться напрямую к пользователю, разместившему торрент файл.

Вверх