Loading...
Error

Боевые свиньи / War Pigs (Райан Литтл) [2015 г., боевик, военный, HDRip] DVO

Статистика раздачи
Размер:  1,45 GB   |    Зарегистрирован:  1 год 4 месяца   |    Скачан:  36 раз

Полного источника не было: 1 месяц 9 дней

Сидов:  0  |  0 KB/s  ]   Личеров:  0  |  0 KB/s  ]

* - сиды/пиры с внешних источников

   
 
Автор Сообщение

makkol Пол:Муж

02-Авг-2015 23:08

Боевые свиньи / War Pigs


Год выпуска: 2015
Жанр: боевик, военный
Производство: США [Schuetzle Company Productions, VMI Worldwide, Verdi Productions]
Режиссер: Райан Литтл
В ролях: Микки Рурк, Дольф Лундгрен, Люк Госс, Райан Келли, Ной Сеган, Чак Лиделл, К.С. Клайд, Джейк Стормоен, Маклейн Нельсон
Сюжет фильма:
Очередная запланированная операция при продуктивном выполнении должна помочь и укрепить силы боевых отрядов. Её участники – это профессионалы своего дела, отчаянные члены группировки под звучным названием «Боевые свиньи». Задача им предстоит весьма непростая: втесаться в круги врага, проникнуть в самый глубокий тыл противоборствующей армии и при этом никак не выдать своё истинное происхождение и реальные цели. Руководство даёт команде «Боевых свиней» решительную установку: во что бы то ни стало, любой ценой уничтожить нацистов даже ценой собственного здоровья, свободы или даже жизни...

  • Мировая премьера: 17 мая 2015


Качество видео: HDRip

Продолжительность: 01:31:29
Формат: AVI
Видео: XviD, 720x400 (16:9), 23.976 fps, 1883 kbps
Аудио: русский, любительский двухголосый закадровый (Lucky Strike), AC3 2.0, 48 kHz, 384 kbps

Код:

Общее
Полное имя                               : War.Pigs.2015.L2.HDRip.avi
Формат                                   : AVI
Формат/Информация                        : Audio Video Interleave
Размер файла                             : 1,45 Гбайт
Продолжительность                        : 1 ч. 31 м.
Общий поток                              : 2276 Кбит/сек
Режиссёр                                 : Carl Gaus
Программа кодирования                    : VirtualDubMod 1.5.10.3 |  (build 2550/release)

Видео
Идентификатор                            : 0
Формат                                   : MPEG-4 Visual
Профиль формата                          : Advanced Simple@L5
Параметр BVOP формата                    : 2
Параметр QPel формата                    : Нет
Параметр GMC формата                     : Без точки перехода
Параметр матрицы формата                 : Default (MPEG)
Идентификатор кодека                     : XVID
Идентификатор кодека/Подсказка           : XviD
Продолжительность                        : 1 ч. 31 м.
Битрейт                                  : 1883 Кбит/сек
Ширина                                   : 720 пикселей
Высота                                   : 400 пикселей
Соотношение сторон                       : 16:9
Частота кадров                           : 23,976 кадра/сек
Цветовое пространство                    : YUV
Субдискретизация насыщенности            : 4:2:0
Битовая глубина                          : 8 бит
Тип развёртки                            : Прогрессивная
Метод сжатия                             : С потерями
Бит/(Пиксели*Кадры)                      : 0.273
Размер потока                            : 1,20 Гбайт (83%)
Библиотека кодирования                   : XviD 1.2.1 (UTC 2008-12-04)

Аудио
Идентификатор                            : 1
Формат                                   : AC-3
Формат/Информация                        : Audio Coding 3
Расширение режима                        : CM (complete main)
Параметр Endianness формата              : Big
Идентификатор кодека                     : 2000
Продолжительность                        : 1 ч. 31 м.
Вид битрейта                             : Постоянный
Битрейт                                  : 384 Кбит/сек
Каналы                                   : 2 канала
Расположение каналов                     : Front: L R
Частота                                  : 48,0 КГц
Метод сжатия                             : С потерями
Размер потока                            : 251 Мбайт (17%)
Выравнивание                             : Разделение по промежуткам
Продолжительность промежутка             : 42  мс. (1,00 видеокадр)
Время предзагрузки промежутка            : 500  мс.
Релиз группы:

picpicpicpicpic
Для увеличения картинки щелкните мышкой по превью

Этот торрент недоступен для скачивания без регистрации, однако доступен по публичной magnet-ссылке (источники с публичных трекеров). Перед использованием ссылки прочтите, пожалуйста Пользовательское соглашение, а также как можно дольше оставайтесь на раздаче! Для того, чтобы скачать сам торрент-файл (который видит больше источников), а также для того, чтобы поблагодарить релизера, вам необходимо зарегистрироваться. Если регистрироваться лень - вы можете также попробовать скачать релиз по нашим партнерским ссылкам ниже.

[underverse.su].t56576.torrent
Трекер: Зарегистрирован   [ 02.08.2015 23:08 ]  

Статус: проверено (by makkol at 03.08.2015 11:11)
Поблагодарили: 1 человек
Тип торрента: публичный - доступные источники с открытых трекеров: 
Размер: 1,45 GB (занимает 1/3 DVDR, для записи нужно 1 болванка DVDR/RW)
 
 
Похожие темы
Форум Тема Автор Торрент Отв. Посл. сооб.
Зарубежное кино [HDDVDRip / BDRip / WEB-DL / HDTV 1080/720р] Боевые свиньи / War Pigs (Райан Литтл) [2015 г., боевик, военный, BDRip 1080p] DVO + Original makkol
4 | 0

0 | 549

16

02.08.2015 23:21


Яндекс.Метрика powered by Sphinx


В Н И М А Н И Е
Сайт не распространяет и не хранит электронные версии произведений, а лишь бесплатно и без коммерческой выгоды (не требуя взамен платы,
SMS и т.д.) предоставляет доступ к создаваемому пользователями каталогу ссылок на торрент-файлы, которые содержат только списки хеш-сумм.
Убедительная просьба с жалобами обращаться напрямую к пользователю, разместившему торрент файл.

Вверх