Loading...
Error

Молодежь / Young Ones (Джейк Пэлтроу) [2014 г., фантастика, боевик, драма, HDRip] MVO

Статистика раздачи
Размер:  1,37 GB   |    Зарегистрирован:  2 года 3 месяца   |    Скачан:  30 раз

Полного источника не было: 1 год

Сидов:  0  |  0 KB/s  ]   Личеров:  0  |  0 KB/s  ]

* - сиды/пиры с внешних источников

   
 
Автор Сообщение

makkol Пол:Муж

02-Авг-2015 22:12

Молодежь / Young Ones


Год выпуска: 2014
Жанр: фантастика, боевик, драма
Производство: США , ЮАР , Ирландия [Bifrost Pictures, Quickfire Films, Spier Films, Subotica Entertainment Ltd.]
Режиссер: Джейк Пэлтроу
В ролях: Майкл Шеннон, Элль Фэннинг, Николас Холт, Коди Смит-МакФи, Айми Маллинз, Энди МакФи, Алекс МакГрегор, Роберт Хоббс, Дэвид Батлер, Лиа О’Прей
Сюжет фильма:
Действие фильма происходит в будущем, где борьба за воду разделила не только штаты, но и людей, когда-то живших по соседству. Эрнест Холм не последовал примеру многих и не покинул родную землю в надежде, что однажды вода вернется и он снова сможет собирать урожай и кормить детей. Одержимый идеей вернуть то, что отняло у него государство, молодой и амбициозный Флемминг Левер нарушает его планы и врывается в жизнь его семьи. Он не остановится ни перед чем, чтобы достичь намеченной цели.

  • Мировая премьера: 18 января 2014


Качество видео: HDRip

Продолжительность: 01:40:19
Формат: AVI
Видео: XviD, 720x304 (2.35:1), 23.976 fps, 1749 kbps
Аудио: русский, профессиональный многоголосый закадровый (официальный), AC3 2.0, 48 kHz, 192 kbps

Код:

Общее
Полное имя                               : M0L0dezhj.2014.P.HDRip.1400Mb.avi
Формат                                   : AVI
Формат/Информация                        : Audio Video Interleave
Размер файла                             : 1,37 Гбайт
Продолжительность                        : 1 ч. 40 м.
Общий поток                              : 1950 Кбит/сек
Программа кодирования                    : VirtualDubMod 1.5.10.2 (build 2540/release)
Библиотека кодирования                   : VirtualDubMod build 2540/release

Видео
Идентификатор                            : 0
Формат                                   : MPEG-4 Visual
Профиль формата                          : Advanced Simple@L5
Параметр BVOP формата                    : 2
Параметр QPel формата                    : Нет
Параметр GMC формата                     : Без точки перехода
Параметр матрицы формата                 : Default (MPEG)
Идентификатор кодека                     : XVID
Идентификатор кодека/Подсказка           : XviD
Продолжительность                        : 1 ч. 40 м.
Битрейт                                  : 1749 Кбит/сек
Ширина                                   : 720 пикселей
Высота                                   : 304 пикселя
Соотношение сторон                       : 2,35:1
Частота кадров                           : 23,976 кадра/сек
Цветовое пространство                    : YUV
Субдискретизация насыщенности            : 4:2:0
Битовая глубина                          : 8 бит
Тип развёртки                            : Прогрессивная
Метод сжатия                             : С потерями
Бит/(Пиксели*Кадры)                      : 0.319
Размер потока                            : 1,17 Гбайт (86%)
Библиотека кодирования                   : XviD 1.2.1 (UTC 2008-12-04)

Аудио
Идентификатор                            : 1
Формат                                   : AC-3
Формат/Информация                        : Audio Coding 3
Расширение режима                        : CM (complete main)
Параметр Endianness формата              : Big
Идентификатор кодека                     : 2000
Продолжительность                        : 1 ч. 40 м.
Вид битрейта                             : Постоянный
Битрейт                                  : 192 Кбит/сек
Каналы                                   : 2 канала
Расположение каналов                     : Front: L R
Частота                                  : 48,0 КГц
Битовая глубина                          : 16 бит
Метод сжатия                             : С потерями
Размер потока                            : 138 Мбайт (10%)
Выравнивание                             : Разделение по промежуткам
picpicpicpicpic
Для увеличения картинки щелкните мышкой по превью

Этот торрент недоступен для скачивания без регистрации, однако доступен по публичной magnet-ссылке (источники с публичных трекеров). Перед использованием ссылки прочтите, пожалуйста Пользовательское соглашение, а также как можно дольше оставайтесь на раздаче! Для того, чтобы скачать сам торрент-файл (который видит больше источников), а также для того, чтобы поблагодарить релизера, вам необходимо зарегистрироваться. Если регистрироваться лень - вы можете также попробовать скачать релиз по нашим партнерским ссылкам ниже.

[underverse.su].t56573.torrent
Трекер: Зарегистрирован   [ 02.08.2015 22:12 ]  

Статус: проверено (by makkol at 02.08.2015 23:25)
Поблагодарили: пока никто не поблагодарил...
Тип торрента: публичный - доступные источники с открытых трекеров: 
Размер: 1,37 GB (занимает 0,31 DVDR, для записи нужно 1 болванка DVDR/RW)
 
 
Похожие темы
Форум Тема Автор Торрент Отв. Посл. сооб.
Зарубежное кино [DVDRip, Low-Res HDRip, и т.д.] Молодежь / Young Ones (Джейк Пэлтроу) [2014 г., фантастика, боевик, драма, WEB-DLRip] VO [datynet] Паукан
28 | 2

0 | 882

45

31.10.2014 14:08

Зарубежное кино [DVDRip, Low-Res HDRip, и т.д.] Молодежь / Young Ones (Джейк Пэлтроу / Jake Paltrow) [2014 г., драма, фантастика, BDRip] VO (datynet) + Original (Eng) 90ytr90
10 | 0

0 | 684

13

22.03.2015 18:53

Зарубежное кино [HDDVDRip / BDRip / WEB-DL / HDTV 1080/720р] Молодежь / Young Ones (Джейк Пэлтроу) [2014 г., фантастика, боевик, драма, WEB-DL 720p] VO [datynet] + Original + Sub (Eng) Паукан
0 | 0

0 | 980

33

31.10.2014 14:11

Зарубежное кино [HDDVDRip / BDRip / WEB-DL / HDTV 1080/720р] Молодежь / Young Ones (Джейк Пэлтроу) [2014 г., фантастика, боевик, драма, BDRip 720p] MVO + Original + Subs (Ger) makkol
1 | 0

0 | 547

7

02.08.2015 22:31

Зарубежное кино [HDDVDRip / BDRip / WEB-DL / HDTV 1080/720р] Молодежь / Young Ones (Джейк Пэлтроу) [2014 г., фантастика, боевик, драма, BDRip 1080p] MVO + Original + Subs makkol
0 | 0

0 | 611

6

02.08.2015 22:46


Яндекс.Метрика powered by Sphinx


В Н И М А Н И Е
Сайт не распространяет и не хранит электронные версии произведений, а лишь бесплатно и без коммерческой выгоды (не требуя взамен платы,
SMS и т.д.) предоставляет доступ к создаваемому пользователями каталогу ссылок на торрент-файлы, которые содержат только списки хеш-сумм.
Убедительная просьба с жалобами обращаться напрямую к пользователю, разместившему торрент файл.

Вверх