Loading...
Error

Как заниматься любовью по-английски / How to Make Love Like an Englishman (Том Вон) [2014 г., мелодрама, комедия, WEB-DLRip] DVO

Статистика раздачи
Размер:  1,46 GB   |    Зарегистрирован:  1 год 4 месяца   |    Скачан:  36 раз

Полного источника не было: 3 месяца 14 дней

Сидов:  0  |  0 KB/s  ]   Личеров:  0  |  0 KB/s  ]

* - сиды/пиры с внешних источников

   
 
Автор Сообщение

makkol Пол:Муж

02-Авг-2015 14:44

Как заниматься любовью по-английски / How to Make Love Like an Englishman


Год выпуска: 2014
Жанр: мелодрама, комедия
Производство: США [PalmStar Media, Southpaw Entertainment]
Режиссер: Том Вон
В ролях: Пирс Броснан, Сальма Хайек, Джессика Альба, Малкольм МакДауэлл, Дункан Джойнер, Бен МакКензи, Меррин Данги, Фред Меламед, Иван Сергей, Ломбардо Бойяр
Сюжет фильма:
Сюжет фильма вращается вокруг профессора Кембриджского университета, избравшего в качестве своего девиза изречение уайльдовского лорда Генри из «Портрета Дориана Грея»: «Единственный способ отделаться от искушения - уступить ему». Но однажды в жизни героя появляется молодая женщина, ради которой он решает пересмотреть личные приоритеты и подавить гедонистические наклонности. И все бы хорошо, вот только сводная сестра новой возлюбленной профессора ждет от него ребенка.

  • Мировая премьера: 6 ноября 2014
  • Российская премьера: 30 июля 2015


Качество видео: WEB-DLRip

Продолжительность: 01:39:20
Формат: AVI
Видео: XviD, 720x304 (2.35:1), 24.000 fps, 1960 kbps
Аудио: русский, любительский двухголосый закадровый (Lucky Strike), AC3 2.0, 48 kHz, 128 kbps

Код:

Общее
Полное имя : Kak.3animatsya.1uboviu.5o.Angliyski.2014.L2.WEB-DLRip.avi
Формат : AVI
Формат/Информация : Audio Video Interleave
Размер файла : 1,46 Гбайт
Продолжительность : 1 ч. 39 м.
Общий поток : 2099 Кбит/сек
Программа кодирования : VirtualDubMod 1.5.10.3 | www.virtualdub-fr.org || (build 2550/release)
Библиотека кодирования : VirtualDubMod build 2550/release

Видео
Идентификатор : 0
Формат : MPEG-4 Visual
Профиль формата : Advanced Simple@L5
Параметр BVOP формата : 1
Параметр QPel формата : Нет
Параметр GMC формата : Без точки перехода
Параметр матрицы формата : Default (MPEG)
Идентификатор кодека : DX50
Идентификатор кодека/Подсказка : DivX 5
Продолжительность : 1 ч. 39 м.
Битрейт : 1960 Кбит/сек
Ширина : 720 пикселей
Высота : 304 пикселя
Соотношение сторон : 2,35:1
Частота кадров : 24,000 кадра/сек
Цветовое пространство : YUV
Субдискретизация насыщенности : 4:2:0
Битовая глубина : 8 бит
Тип развёртки : Прогрессивная
Метод сжатия : С потерями
Бит/(Пиксели*Кадры) : 0.373
Размер потока : 1,36 Гбайт (93%)
Библиотека кодирования : XviD 1.2.1 (UTC 2008-12-04)

Аудио
Идентификатор : 1
Формат : AC-3
Формат/Информация : Audio Coding 3
Расширение режима : CM (complete main)
Параметр Endianness формата : Big
Идентификатор кодека : 2000
Продолжительность : 1 ч. 39 м.
Вид битрейта : Постоянный
Битрейт : 128 Кбит/сек
Каналы : 2 канала
Расположение каналов : Front: L R
Частота : 48,0 КГц
Метод сжатия : С потерями
Размер потока : 90,9 Мбайт (6%)
Выравнивание : Разделение по промежуткам
Продолжительность промежутка : 42 мс. (1,00 видеокадр)
Время предзагрузки промежутка : 500 мс.
picpicpicpicpic
Для увеличения картинки щелкните мышкой по превью

Этот торрент недоступен для скачивания без регистрации, однако доступен по публичной magnet-ссылке (источники с публичных трекеров). Перед использованием ссылки прочтите, пожалуйста Пользовательское соглашение, а также как можно дольше оставайтесь на раздаче! Для того, чтобы скачать сам торрент-файл (который видит больше источников), а также для того, чтобы поблагодарить релизера, вам необходимо зарегистрироваться. Если регистрироваться лень - вы можете также попробовать скачать релиз по нашим партнерским ссылкам ниже.

[underverse.su].t56559.torrent
Трекер: Зарегистрирован   [ 02.08.2015 14:44 ]  

Статус: проверено (by makkol at 02.08.2015 15:06)
Поблагодарили: пока никто не поблагодарил...
Тип торрента: публичный - доступные источники с открытых трекеров: 
Размер: 1,46 GB (занимает 1/3 DVDR, для записи нужно 1 болванка DVDR/RW)
 
 
Похожие темы
Форум Тема Автор Торрент Отв. Посл. сооб.
T Зарубежное кино [DVDRip, Low-Res HDRip, и т.д.] Как заниматься любовью по-английски / How to Make Love Like an Englishman (Том Вон) [2014 г., мелодрама, комедия, WEB-DLRip] Dub (Line) makkol
54 | 0

0 | 700

40

21.08.2015 14:00

T Зарубежное кино [DVDRip, Low-Res HDRip, и т.д.] Как заниматься любовью по-английски / How to Make Love Like an Englishman (Том Вон) [2014 г., мелодрама, комедия, HDRip] Dub makkol
38 | 1

0 | 743

15

21.04.2016 22:41

Зарубежное кино [HDDVDRip / BDRip / WEB-DL / HDTV 1080/720р] Как заниматься любовью по-английски / How to Make Love Like an Englishman (Том Вон) [2014 г., мелодрама, комедия, WEB-DL 720p] DVO + Original makkol
10 | 0

0 | 627

25

02.08.2015 14:59

T Зарубежное кино [HDDVDRip / BDRip / WEB-DL / HDTV 1080/720р] Как заниматься любовью по-английски / How to Make Love Like an Englishman (Том Вон) [2014 г., мелодрама, комедия, WEB-DL 720p] Dub (Line) + Original makkol
12 | 0

0 | 625

24

21.08.2015 14:13

T Зарубежное кино [HDDVDRip / BDRip / WEB-DL / HDTV 1080/720р] Как заниматься любовью по-английски / How to Make Love Like an Englishman (Том Вон / Tom Vaughan) [2014 г., мелодрама, комедия, BDRip 1080p] Dub (чистый звук) + Original (Eng) + Sub (Eng) 90ytr90
20 | 0

0 | 804

2

26.02.2016 20:27

T Зарубежное кино [HDDVDRip / BDRip / WEB-DL / HDTV 1080/720р] Как заниматься любовью по-английски / How to Make Love Like an Englishman (Том Вон) [2014 г., мелодрама, комедия, BDRip 720p] Dub + Original makkol
13 | 1

0 | 643

3

21.04.2016 22:46

T Зарубежное кино [HDDVDRip / BDRip / WEB-DL / HDTV 1080/720р] Как заниматься любовью по-английски / How to Make Love Like an Englishman (Том Вон) [2014 г., мелодрама, комедия, BDRip 1080p] Dub + Original makkol
2 | 0

0 | 686

2

21.04.2016 22:51


Яндекс.Метрика powered by Sphinx


В Н И М А Н И Е
Сайт не распространяет и не хранит электронные версии произведений, а лишь бесплатно и без коммерческой выгоды (не требуя взамен платы,
SMS и т.д.) предоставляет доступ к создаваемому пользователями каталогу ссылок на торрент-файлы, которые содержат только списки хеш-сумм.
Убедительная просьба с жалобами обращаться напрямую к пользователю, разместившему торрент файл.

Вверх