Loading...
Error

Форсаж 7 (Расширенная версия) / Furious 7 (Extended cut) (Джеймс Ван) [2015 г., боевик, триллер, криминальный, HDRip] Dub

Статистика раздачи
Размер:  2,05 GB   |    Зарегистрирован:  1 год 4 месяца   |    Скачан:  75 раз
Сидов:  1  |  8 KB/s  ]   Личеров:  0  |  0 KB/s  ]

* - сиды/пиры с внешних источников

   
 
Автор Сообщение

makkol Пол:Муж

01-Авг-2015 14:37

Форсаж 7 (Расширенная версия) / Furious 7 (Extended cut)
«Месть не знает границ»


Год выпуска: 2015
Жанр: боевик, триллер, криминальный
Производство: США [Dentsu, Fast 7 Productions, One Race Films, Original Film, Universal Pictures]
Режиссер: Джеймс Ван
В ролях: Вин Дизель, Дуэйн Джонсон, Джейсон Стэйтем, Пол Уокер, Тайриз Гибсон, Лудакрис, Тони Джаа, Лукас Блэк, Мишель Родригес, Курт Расселл, Эльза Патаки, Джордана Брюстер, Натали Эммануэль, Галь Гадот, Джон Бразертон, Джимон Хонсу, Ноэль Гульеми, Али Фазал, Санг Кенг, Ронда Роуси, Гентри Уайт, Игги Азалия, Джон Ли Броди, Анна Колвелл, Виктор Эрнандез, Стив Култер, Роберт Пралго, Хорхе Феррагут, Бенжамин Бланкеншип
Сюжет фильма:
Они покорили Токио и Рио, Лос-Анджелес и Лондон. Но мир больше не играет по их правилам. Зной арабских пустынь, неприлично высокие небоскребы, миллионы долларов на колесах и очень, очень знаменитый злодей. Скорость не знает границ.

  • Мировая премьера: 16 марта 2015
  • Российская премьера: 9 апреля 2015


Качество видео: HDRip

Продолжительность: 02:19:55
Формат: AVI
Видео: XviD, 720x304 (2.35:1), 23.976 fps, 1646 kbps
Аудио: русский, дублированный (лицензия), AC3 5.1, 48 kHz, 448 kbps

Примечание: расширенная версия длиннее театральной на ~2 минуты. Полный лицензионный дублированный перевод.

Код:

Общее
Полное имя                               : F0PCazh.VII.2O15.D.HDRip.21OOMB.EXT.avi
Формат                                   : AVI
Формат/Информация                        : Audio Video Interleave
Размер файла                             : 2,05 Гбайт
Продолжительность                        : 2 ч. 19 м.
Общий поток                              : 2101 Кбит/сек
Программа кодирования                    : VirtualDubMod 1.5.10.2 (build 2540/release)
Библиотека кодирования                   : VirtualDubMod build 2540/release

Видео
Идентификатор                            : 0
Формат                                   : MPEG-4 Visual
Профиль формата                          : Advanced Simple@L5
Параметр BVOP формата                    : 2
Параметр QPel формата                    : Нет
Параметр GMC формата                     : Без точки перехода
Параметр матрицы формата                 : Default (MPEG)
Идентификатор кодека                     : XVID
Идентификатор кодека/Подсказка           : XviD
Продолжительность                        : 2 ч. 19 м.
Битрейт                                  : 1646 Кбит/сек
Ширина                                   : 720 пикселей
Высота                                   : 304 пикселя
Соотношение сторон                       : 2,35:1
Частота кадров                           : 23,976 кадра/сек
Цветовое пространство                    : YUV
Субдискретизация насыщенности            : 4:2:0
Битовая глубина                          : 8 бит
Тип развёртки                            : Прогрессивная
Метод сжатия                             : С потерями
Бит/(Пиксели*Кадры)                      : 0.298
Размер потока                            : 1,53 Гбайт (74%)
Библиотека кодирования                   : XviD 1.2.1 (UTC 2008-12-04)

Аудио
Идентификатор                            : 1
Формат                                   : AC-3
Формат/Информация                        : Audio Coding 3
Расширение режима                        : CM (complete main)
Параметр Endianness формата              : Big
Идентификатор кодека                     : 2000
Продолжительность                        : 2 ч. 19 м.
Вид битрейта                             : Постоянный
Битрейт                                  : 448 Кбит/сек
Каналы                                   : 6 каналов
Расположение каналов                     : Front: L C R, Side: L R, LFE
Частота                                  : 48,0 КГц
Битовая глубина                          : 16 бит
Метод сжатия                             : С потерями
Размер потока                            : 448 Мбайт (21%)
Выравнивание                             : Разделение по промежуткам
picpicpicpicpic
Для увеличения картинки щелкните мышкой по превью

Этот торрент недоступен для скачивания без регистрации, однако доступен по публичной magnet-ссылке (источники с публичных трекеров). Перед использованием ссылки прочтите, пожалуйста Пользовательское соглашение, а также как можно дольше оставайтесь на раздаче! Для того, чтобы скачать сам торрент-файл (который видит больше источников), а также для того, чтобы поблагодарить релизера, вам необходимо зарегистрироваться. Если регистрироваться лень - вы можете также попробовать скачать релиз по нашим партнерским ссылкам ниже.

[underverse.su].t56541.torrent
Трекер: Зарегистрирован   [ 01.08.2015 14:37 ]  

Статус: проверено (by makkol at 01.08.2015 15:31)
Поблагодарили: 4 человека
Тип торрента: публичный - доступные источники с открытых трекеров: 
Размер: 2,05 GB (занимает 0,47 DVDR, для записи нужно 1 болванка DVDR/RW)
 
 
Похожие темы
Форум Тема Автор Торрент Отв. Посл. сооб.
Зарубежное кино [HDDVDRip / BDRip / WEB-DL / HDTV 1080/720р] Форсаж 7 (Расширенная версия) / Furious 7 (Extended cut) (Джеймс Ван) [2015 г., боевик, триллер, криминальный, BDRip 720p] Dub + AVO + Original makkol
7 | 0

0 | 688

31

01.08.2015 15:03

Зарубежное кино [HDDVDRip / BDRip / WEB-DL / HDTV 1080/720р] Форсаж 7 (Расширенная версия) / Furious 7 (Extended cut) (Джеймс Ван) [2015 г., боевик, триллер, криминальный, BDRip 1080p] Dub + AVO + Original makkol
7 | 0

0 | 886

34

01.08.2015 15:19

val.s.g Пол:Муж

06-Авг-2015 16:20

Просто интересно, что же тут растянули еще на две минуты. :crazy:

Яндекс.Метрика powered by Sphinx


В Н И М А Н И Е
Сайт не распространяет и не хранит электронные версии произведений, а лишь бесплатно и без коммерческой выгоды (не требуя взамен платы,
SMS и т.д.) предоставляет доступ к создаваемому пользователями каталогу ссылок на торрент-файлы, которые содержат только списки хеш-сумм.
Убедительная просьба с жалобами обращаться напрямую к пользователю, разместившему торрент файл.

Вверх