Loading...
Error

3615 код Деда Мороза / 3615 code Pere Noel (Рене Манзор) [1989 г., ужасы, боевик, триллер, DVDRip] DVO + Original

Статистика раздачи
Размер:  1,48 GB   |    Зарегистрирован:  1 год 4 месяца   |    Скачан:  2 раза

Полного источника не было: 7 часов

Сидов:  0  |  0 KB/s  ]   Личеров:  0  |  0 KB/s  ]

* - сиды/пиры с внешних источников

   
 
Автор Сообщение

makkol Пол:Муж

31-Июл-2015 14:00

3615 код Деда Мороза / 3615 code Père Noël


Год выпуска: 1989
Жанр: ужасы, боевик, триллер
Производство: Франция [L.M. Productions, Deal, Garance]
Режиссер: Рене Манзор
В ролях: Ален Лаланн, Брижит Фоссе, Луи Дюкрё, Патрик Флёрем, Франсуа-Эрик Жандрон, Стефани Легрос, Франк Капиллери, Николь Раукер
Сюжет фильма:
Томас, очень смышленый и находчивый ребенок, остается вдвоем со своим дедом в канун Рождества, когда психопат, переодетый в Санта Клауса, проникает к ним в дом. Томас будет делать всё чтобы защитить себя и своего деда.

Альтернативное описание:
Мальчик по имени Тома очень крут. А крутым ему позволяет быть его мама, работающая в очень крупной фирме. Хорошие деньги, дом – полная чаша, да такой, что его можно назвать практически замком. Мальчик от нечего делать устраивает в своём доме военные операции в духе “Аллаху полный акбар”, одеваясь в камуфляжную форму и раскрашиваясь в стиле командос, и бегает среди расставленных по всему дому ловушек. Близится Рождество и его мать устраивает заседание совета директоров и постановляет, что нужно проводить набор Санта-Клаусов.
Тома, который не верил в Дедов Морозов, неожиданно переписался с одним из них по компьютеру и тот сказал, что не любит неверующих в него. И тут мы видим, что с мальчиком общался какой-то бомжара. Этот мужик устраивается на работу к его матери, его приодевают в Санта-Клауса. Но только он начал работать, случилась неприятность. Маленькая девочка, не верящая в Санта-Клаусов, скинула с него накладную бороду. А мужик её за это ударил, за что и был тут же уволен мамой Томы. Затаив обиду на неё и вообще, он угрохал человека в костюме Санта-Клауса и забрался в дом, где был Тома. Начинается смертельная погоня за мальчиком и его престарелым дедом…
Французский ответ на многочисленные американские слэшеры с Дедом Морозом в качестве убийцы. Получилось интересно, но немножечко по-детски, хотя ряд кровавых убийств несколько не вписывается в общее настроение. Соедините воедино "Рембо", "Один дома" и разномастные американские слэшеры про Дедов-Морозов и вы тогда поймёте с чем имеете дело. (Akira)

  • Мировая премьера: 18 марта 1989


Перевод: DeepestLore
Озвучивание: den904 & DeadSno

Качество видео: DVDRip

Продолжительность: 01:27:28
Формат: AVI
Видео: XviD, 624x336 (1.85:1), 25.000 fps, 1832 kbps
Аудио #1: русский, любительский двухголосый закадровый, AC3 2.0, 48 kHz, 192 kbps
Аудио #2: французский, оригинал, AC3 5.1, 48 kHz, 384 kbps
Субтитры: русские, английские внешние (SRT)

Код:

General
Complete name                            : 3615.Code.Pere.Noel.avi
Format                                   : AVI
Format/Info                              : Audio Video Interleave
File size                                : 1.48 GiB
Duration                                 : 1h 27mn
Overall bit rate                         : 2 423 Kbps
Writing application                      : VirtualDubMod 1.5.10.2 (build 2540/release)
Writing library                          : VirtualDubMod build 2540/release

Video
ID                                       : 0
Format                                   : MPEG-4 Visual
Format profile                           : Advanced Simple@L5
Format settings, BVOP                    : 2
Format settings, QPel                    : No
Format settings, GMC                     : No warppoints
Format settings, Matrix                  : Default (H.263)
Codec ID                                 : XVID
Codec ID/Hint                            : XviD
Duration                                 : 1h 27mn
Bit rate                                 : 1 832 Kbps
Width                                    : 624 pixels
Height                                   : 336 pixels
Display aspect ratio                     : 1.85:1
Frame rate                               : 25.000 fps
Color space                              : YUV
Chroma subsampling                       : 4:2:0
Bit depth                                : 8 bits
Scan type                                : Progressive
Compression mode                         : Lossy
Bits/(Pixel*Frame)                       : 0.350
Stream size                              : 1.12 GiB (76%)
Writing library                          : XviD 63

Audio #1
ID                                       : 1
Format                                   : AC-3
Format/Info                              : Audio Coding 3
Mode extension                           : CM (complete main)
Format settings, Endianness              : Big
Codec ID                                 : 2000
Duration                                 : 1h 27mn
Bit rate mode                            : Constant
Bit rate                                 : 192 Kbps
Channel(s)                               : 2 channels
Channel positions                        : Front: L R
Sampling rate                            : 48.0 KHz
Bit depth                                : 16 bits
Compression mode                         : Lossy
Stream size                              : 120 MiB (8%)
Alignment                                : Split accross interleaves
Interleave, duration                     : 40 ms (1.00 video frame)
Interleave, preload duration             : 500 ms

Audio #2
ID                                       : 2
Format                                   : AC-3
Format/Info                              : Audio Coding 3
Mode extension                           : CM (complete main)
Format settings, Endianness              : Big
Codec ID                                 : 2000
Duration                                 : 1h 27mn
Bit rate mode                            : Constant
Bit rate                                 : 384 Kbps
Channel(s)                               : 6 channels
Channel positions                        : Front: L C R, Side: L R, LFE
Sampling rate                            : 48.0 KHz
Bit depth                                : 16 bits
Compression mode                         : Lossy
Stream size                              : 240 MiB (16%)
Alignment                                : Split accross interleaves
Interleave, duration                     : 40 ms (1.00 video frame)
Interleave, preload duration             : 500 ms
picpicpicpicpic
Для увеличения картинки щелкните мышкой по превью

Этот торрент недоступен для скачивания без регистрации, однако доступен по публичной magnet-ссылке (источники с публичных трекеров). Перед использованием ссылки прочтите, пожалуйста Пользовательское соглашение, а также как можно дольше оставайтесь на раздаче! Для того, чтобы скачать сам торрент-файл (который видит больше источников), а также для того, чтобы поблагодарить релизера, вам необходимо зарегистрироваться. Если регистрироваться лень - вы можете также попробовать скачать релиз по нашим партнерским ссылкам ниже.

[underverse.su].t56516.torrent
Трекер: Зарегистрирован   [ 19.11.2015 20:46 ]  

Статус: проверено (by makkol at 19.11.2015 22:53)
Поблагодарили: пока никто не поблагодарил...
Тип торрента: публичный - доступные источники с открытых трекеров: 
Размер: 1,48 GB (занимает 0,34 DVDR, для записи нужно 1 болванка DVDR/RW)
 
 

Яндекс.Метрика powered by Sphinx


В Н И М А Н И Е
Сайт не распространяет и не хранит электронные версии произведений, а лишь бесплатно и без коммерческой выгоды (не требуя взамен платы,
SMS и т.д.) предоставляет доступ к создаваемому пользователями каталогу ссылок на торрент-файлы, которые содержат только списки хеш-сумм.
Убедительная просьба с жалобами обращаться напрямую к пользователю, разместившему торрент файл.

Вверх