Loading...
Error

Бруно / Bruno / The Dress Code (Ширли МакЛейн) [2000 г., драма, комедия, семейный, DVDRip-AVC] MVO + Original

Статистика раздачи
Размер:  1,59 GB   |    Зарегистрирован:  1 год 4 месяца   |    Скачан:  5 раз
Сидов:  1  |  0 KB/s  ]   Личеров:  0  |  0 KB/s  ]

* - сиды/пиры с внешних источников

   
 
Автор Сообщение

makkol Пол:Муж

30-Июл-2015 15:49

Бруно / Bruno / The Dress Code


Год выпуска: 2000
Жанр: драма, комедия, семейный
Производство: США [J&M Entertainment, Original Voices Inc.]
Режиссер: Ширли МакЛейн
В ролях: Алекс Д. Линц, Ширли МакЛейн, Гэри Сайнайз, Кэти Бэйтс, Стэйси Холприн, Кайэми Дэвел, Джоуи Лорен Адамс, Дженнифер Тилли, Бретт Батлер, Кристиан Дюранго, Гвен Вердон, Дилан Хаббард, Кайл Филлипс, Джордан Перри, Джоанна Пэнкоу
Сюжет фильма:
Познакомьтесь с удивительным мальчиком Бруно! Он еще совсем маленький, но у него уже уйма серьезных проблем: над ним издеваются одноклассники, у него самая толстая мама на свете и никому нет дела до его заветных желаний. Вся школа смеется над причудами Бруно, его стесняется даже родной отец, но этот находчивый малыш уже знает, как удивить всех, кто не подозревает, что рядом с ними живет забавный выдумщик и настоящий вундеркинд!

  • Мировая премьера: 16 апреля 2000


Качество видео: DVDRip-AVC

Продолжительность: 01:43:50
Формат: MKV
Видео: MPEG-4 AVC, 704x412@768x412 (1.85:1), 25.000 fps, 1573 kbps
Аудио #1: русский, профессиональный многоголосый закадровый, AC3 2.0, 48 kHz, 192 kbps
Аудио #2: английский, оригинал, AC3 5.1, 48 kHz, 384 kbps
Субтитры: русские (Ryuuzaki) вшитые отключаемые

Код:

Общее
Уникальный идентификатор                 : 208747759219156188043441950974388793761 (0x9D0B5B24CEC58BB0B2B24728C3E0F1A1)
Полное имя                               : Bruno.2010.DVDRip.mkv
Формат                                   : Matroska
Версия формата                           : Version 4 / Version 2
Размер файла                             : 1,59 Гбайт
Продолжительность                        : 1 ч. 43 м.
Общий поток                              : 2193 Кбит/сек
Дата кодирования                         : UTC 2015-07-30 15:09:23
Программа кодирования                    : mkvmerge v7.9.0 ('Birds') 64bit
Библиотека кодирования                   : libebml v1.3.1 + libmatroska v1.4.2
DURATION                                 : 01:43:44.156000000
NUMBER_OF_FRAMES                         : 1504
NUMBER_OF_BYTES                          : 76449
_STATISTICS_WRITING_APP                  : mkvmerge v7.9.0 ('Birds') 64bit
_STATISTICS_WRITING_DATE_UTC             : 2015-07-30 15:09:23
_STATISTICS_TAGS                         : BPS DURATION NUMBER_OF_FRAMES NUMBER_OF_BYTES

Видео
Идентификатор                            : 1
Формат                                   : AVC
Формат/Информация                        : Advanced Video Codec
Профиль формата                          : High@L3.1
Параметр CABAC формата                   : Да
Параметр ReFrames формата                : 11 кадров
Идентификатор кодека                     : V_MPEG4/ISO/AVC
Продолжительность                        : 1 ч. 43 м.
Битрейт                                  : 1573 Кбит/сек
Ширина                                   : 704 пикселя
Высота                                   : 412 пикселей
Соотношение сторон                       : 1,85:1
Режим частоты кадров                     : Постоянный
Частота кадров                           : 25,000 кадров/сек
Цветовое пространство                    : YUV
Субдискретизация насыщенности            : 4:2:0
Битовая глубина                          : 8 бит
Тип развёртки                            : Прогрессивная
Бит/(Пиксели*Кадры)                      : 0.217
Размер потока                            : 1,14 Гбайт (72%)
Библиотека кодирования                   : x264 core 120
Настройки программы                      : cabac=1 / ref=11 / deblock=1:-3:-3 / analyse=0x3:0x133 / me=umh / subme=11 / psy=1 / psy_rd=1.00:0.00 / mixed_ref=1 / me_range=32 / chroma_me=1 / trellis=2 / 8x8dct=1 / cqm=0 / deadzone=21,11 / fast_pskip=0 / chroma_qp_offset=-2 / threads=6 / sliced_threads=0 / nr=0 / decimate=1 / interlaced=0 / bluray_compat=0 / constrained_intra=0 / bframes=9 / b_pyramid=2 / b_adapt=2 / b_bias=0 / direct=3 / weightb=1 / open_gop=0 / weightp=2 / keyint=250 / keyint_min=25 / scenecut=40 / intra_refresh=0 / rc_lookahead=50 / rc=crf / mbtree=1 / crf=18.0 / qcomp=0.60 / qpmin=3 / qpmax=69 / qpstep=4 / ip_ratio=1.40 / aq=2:1.20
Язык                                     : English
Default                                  : Да
Forced                                   : Нет
Цветовой диапазон                        : Limited
Основные цвета                           : BT.601 NTSC
Характеристики трансфера                 : BT.709
Коэффициенты матрицы                     : BT.601

Аудио #1
Идентификатор                            : 2
Формат                                   : AC-3
Формат/Информация                        : Audio Coding 3
Расширение режима                        : CM (complete main)
Параметр Endianness формата              : Big
Идентификатор кодека                     : A_AC3
Продолжительность                        : 1 ч. 43 м.
Вид битрейта                             : Постоянный
Битрейт                                  : 192 Кбит/сек
Каналы                                   : 2 канала
Расположение каналов                     : Front: L R
Частота                                  : 48,0 КГц
Битовая глубина                          : 16 бит
Метод сжатия                             : С потерями
Размер потока                            : 143 Мбайт (9%)
Язык                                     : Russian
Default                                  : Да
Forced                                   : Нет

Аудио #2
Идентификатор                            : 3
Формат                                   : AC-3
Формат/Информация                        : Audio Coding 3
Расширение режима                        : CM (complete main)
Параметр Endianness формата              : Big
Идентификатор кодека                     : A_AC3
Продолжительность                        : 1 ч. 43 м.
Вид битрейта                             : Постоянный
Битрейт                                  : 384 Кбит/сек
Каналы                                   : 6 каналов
Расположение каналов                     : Front: L C R, Side: L R, LFE
Частота                                  : 48,0 КГц
Битовая глубина                          : 16 бит
Метод сжатия                             : С потерями
Размер потока                            : 285 Мбайт (18%)
Язык                                     : English
Default                                  : Нет
Forced                                   : Нет

Текст #1
Идентификатор                            : 4
Формат                                   : UTF-8
Идентификатор кодека                     : S_TEXT/UTF8
Идентификатор кодека/Информация          : UTF-8 Plain Text
Заголовок                                : Ryuuzaki (forced)
Язык                                     : Russian
Default                                  : Да
Forced                                   : Нет

Текст #2
Идентификатор                            : 5
Формат                                   : UTF-8
Идентификатор кодека                     : S_TEXT/UTF8
Идентификатор кодека/Информация          : UTF-8 Plain Text
Заголовок                                : Ryuuzaki (full)
Язык                                     : Russian
Default                                  : Нет
Forced                                   : Нет

Меню
00:00:00.000                             : en:Chapter 1
00:05:30.760                             : en:Chapter 2
00:10:57.160                             : en:Chapter 3
00:16:21.160                             : en:Chapter 4
00:21:46.120                             : en:Chapter 5
00:27:10.120                             : en:Chapter 6
00:32:24.520                             : en:Chapter 7
00:37:41.320                             : en:Chapter 8
00:43:05.800                             : en:Chapter 9
00:48:20.680                             : en:Chapter 10
00:53:44.680                             : en:Chapter 11
00:59:04.840                             : en:Chapter 12
01:04:22.600                             : en:Chapter 13
01:09:40.360                             : en:Chapter 14
01:15:00.520                             : en:Chapter 15
01:20:16.840                             : en:Chapter 16
01:25:38.920                             : en:Chapter 17
01:30:56.680                             : en:Chapter 18
01:36:19.240                             : en:Chapter 19
01:41:31.240                             : en:Chapter 20
picpicpicpicpic
Для увеличения картинки щелкните мышкой по превью

Этот торрент недоступен для скачивания без регистрации, однако доступен по публичной magnet-ссылке (источники с публичных трекеров). Перед использованием ссылки прочтите, пожалуйста Пользовательское соглашение, а также как можно дольше оставайтесь на раздаче! Для того, чтобы скачать сам торрент-файл (который видит больше источников), а также для того, чтобы поблагодарить релизера, вам необходимо зарегистрироваться. Если регистрироваться лень - вы можете также попробовать скачать релиз по нашим партнерским ссылкам ниже.

[underverse.su].t56494.torrent
Трекер: Зарегистрирован   [ 30.07.2015 15:49 ]  

Статус: проверено (by makkol at 31.07.2015 23:57)
Поблагодарили: пока никто не поблагодарил...
Тип торрента: публичный - доступные источники с открытых трекеров: 
Размер: 1,59 GB (занимает 0,36 DVDR, для записи нужно 1 болванка DVDR/RW)
 
 
Похожие темы
Форум Тема Автор Торрент Отв. Посл. сооб.
Архив Бруно / Bruno (Ларри Чарльз ) [2009 г., комедия, DVDRip] БогDan
0 | 0

3 | 936

29

16.06.2011 08:08


Яндекс.Метрика powered by Sphinx


В Н И М А Н И Е
Сайт не распространяет и не хранит электронные версии произведений, а лишь бесплатно и без коммерческой выгоды (не требуя взамен платы,
SMS и т.д.) предоставляет доступ к создаваемому пользователями каталогу ссылок на торрент-файлы, которые содержат только списки хеш-сумм.
Убедительная просьба с жалобами обращаться напрямую к пользователю, разместившему торрент файл.

Вверх