Loading...
Error

Чжун Куй: Снежная дева и тёмный кристалл / Zhong Kui Snow Girl and the Dark Crystal (Питер Пау, Чжао Тайню) [2015 г., фэнтези, приключения, HDRip] DVO

Статистика раздачи
Размер:  1,37 GB   |    Зарегистрирован:  1 год 4 месяца   |    Скачан:  48 раз

Полного источника не было: 4 дня

Сидов:  0  |  0 KB/s  ]   Личеров:  0  |  0 KB/s  ]

* - сиды/пиры с внешних источников

   
 
Автор Сообщение

makkol Пол:Муж

30-Июл-2015 14:01

Чжун Куй: Снежная дева и тёмный кристалл / Zhong Kui Snow Girl and the Dark Crystal


Год выпуска: 2015
Жанр: фэнтези, приключения
Производство: Китай , Гонконг , США [Desen International Media, Enlight Pictures, K Pictures Co.]
Режиссер: Питер Пау, Чжао Тайню
В ролях: Бэйэр Бао, Уинстон Чао, Кун Чен, Бинбин Ли
Сюжет фильма:
Молодой человек Чжун Куй - в поздней китайской мифологии повелитель демонов, а к началу эпохи Тан Чжун Куй превратился из божества, оберегающего от злых сил, в божество, усмиряющее и истребляющее демонов - наделённый таинственными силами вынужден сражаться с духами Неба, Земли и Ада ради спасения своих соотечественников и любимой женщины…

  • Мировая премьера: 19 февраля 2015


Перевод: Виктория Хеймдалль
Озвучивание: Ольга Гринтиева и Дмитрий Познанский

Качество видео: HDRip

Продолжительность: 01:57:48
Формат: AVI
Видео: XviD, 720x304 (2.35:1), 24.000 fps, 1459 kbps
Аудио: русский, любительский двухголосый закадровый (GREEN TEA), AC3 2.0, 48 kHz, 192 kbps

Код:

Общее
Полное имя                               : CHezhH.DeBa.i.T10mHyj.kP1CtaL.2015.P2.HDRip.1400Mb.avi
Формат                                   : AVI
Формат/Информация                        : Audio Video Interleave
Размер файла                             : 1,37 Гбайт
Продолжительность                        : 1 ч. 57 м.
Общий поток                              : 1660 Кбит/сек
Программа кодирования                    : VirtualDubMod 1.5.10.2 (build 2540/release)
Библиотека кодирования                   : VirtualDubMod build 2540/release

Видео
Идентификатор                            : 0
Формат                                   : MPEG-4 Visual
Профиль формата                          : Advanced Simple@L5
Параметр BVOP формата                    : 2
Параметр QPel формата                    : Нет
Параметр GMC формата                     : Без точки перехода
Параметр матрицы формата                 : Default (MPEG)
Идентификатор кодека                     : XVID
Идентификатор кодека/Подсказка           : XviD
Продолжительность                        : 1 ч. 57 м.
Битрейт                                  : 1459 Кбит/сек
Ширина                                   : 720 пикселей
Высота                                   : 304 пикселя
Соотношение сторон                       : 2,35:1
Частота кадров                           : 24,000 кадра/сек
Цветовое пространство                    : YUV
Субдискретизация насыщенности            : 4:2:0
Битовая глубина                          : 8 бит
Тип развёртки                            : Прогрессивная
Метод сжатия                             : С потерями
Бит/(Пиксели*Кадры)                      : 0.265
Размер потока                            : 1,15 Гбайт (84%)
Библиотека кодирования                   : XviD 1.2.1 (UTC 2008-12-04)

Аудио
Идентификатор                            : 1
Формат                                   : AC-3
Формат/Информация                        : Audio Coding 3
Расширение режима                        : CM (complete main)
Параметр Endianness формата              : Big
Идентификатор кодека                     : 2000
Продолжительность                        : 1 ч. 57 м.
Вид битрейта                             : Постоянный
Битрейт                                  : 192 Кбит/сек
Каналы                                   : 2 канала
Расположение каналов                     : Front: L R
Частота                                  : 48,0 КГц
Битовая глубина                          : 16 бит
Метод сжатия                             : С потерями
Размер потока                            : 162 Мбайт (12%)
Выравнивание                             : Разделение по промежуткам
picpicpicpicpic
Для увеличения картинки щелкните мышкой по превью

Этот торрент недоступен для скачивания без регистрации, однако доступен по публичной magnet-ссылке (источники с публичных трекеров). Перед использованием ссылки прочтите, пожалуйста Пользовательское соглашение, а также как можно дольше оставайтесь на раздаче! Для того, чтобы скачать сам торрент-файл (который видит больше источников), а также для того, чтобы поблагодарить релизера, вам необходимо зарегистрироваться. Если регистрироваться лень - вы можете также попробовать скачать релиз по нашим партнерским ссылкам ниже.

[underverse.su].t56490.torrent
Трекер: Зарегистрирован   [ 30.07.2015 14:01 ]  

Статус: проверено (by makkol at 04.08.2015 15:39)
Поблагодарили: 2 человека
Тип торрента: публичный - доступные источники с открытых трекеров: 
Размер: 1,37 GB (занимает 0,31 DVDR, для записи нужно 1 болванка DVDR/RW)
 
 
Похожие темы
Форум Тема Автор Торрент Отв. Посл. сооб.
Зарубежное кино [HDDVDRip / BDRip / WEB-DL / HDTV 1080/720р] Чжун Куй: Снежная дева и тёмный кристалл / Zhong Kui Snow Girl and the Dark Crystal (Питер Пау, Чжао Тайню) [2015 г., фэнтези, приключения, BDRip 720p] DVO + Original makkol
9 | 0

0 | 638

8

04.08.2015 15:54

T Новинки кино [CAMRip, TS, DVDScr, WP, TC] Чжун Куй: Снежная дева и тёмный кристалл / Zhong Kui fu mo: Xue yao mo ling (Питер Пау / Peter Pau, Чжао Тайню / Tianyu Zhao) [2015 г., фэнтези, TC] DVO (GREEN TEA) 90ytr90
1 | 0

0 | 1084

57

25.03.2015 15:24


Яндекс.Метрика powered by Sphinx


В Н И М А Н И Е
Сайт не распространяет и не хранит электронные версии произведений, а лишь бесплатно и без коммерческой выгоды (не требуя взамен платы,
SMS и т.д.) предоставляет доступ к создаваемому пользователями каталогу ссылок на торрент-файлы, которые содержат только списки хеш-сумм.
Убедительная просьба с жалобами обращаться напрямую к пользователю, разместившему торрент файл.

Вверх