Loading...
Error

Оно / It Follows (Дэвид Роберт Митчелл) [2014 г., ужасы, триллер, детектив, HDRip] Dub

Статистика раздачи
Размер:  1,37 GB   |    Зарегистрирован:  1 год 4 месяца   |    Скачан:  30 раз

Полного источника не было: 2 часа

Сидов:  0  |  0 KB/s  ]   Личеров:  0  |  0 KB/s  ]

* - сиды/пиры с внешних источников

   
 
Автор Сообщение

makkol Пол:Муж

30-Июл-2015 11:31

Оно / It Follows
«Следует за тобой»


Год выпуска: 2014
Жанр: ужасы, триллер, детектив
Производство: США [Northern Lights Films, Animal Kingdom, Two Flints]
Режиссер: Дэвид Роберт Митчелл
В ролях: Кейр Гилкрист, Carollette Phillips, Лорен Басс, Оливия Луккарди, Лили Сепе, Майка Монро, Джейк Вири, Дэниэл Дзоватто, Чарльз Гертнер, Бэйли Спрай
Сюжет фильма:
После сексуальной связи 19-летнюю девушку по имени Джей начинают мучать странные видения и непреодолимое чувство того, что кто-то или что-то за ней следит…

  • Мировая премьера: 17 мая 2014
  • Российская премьера: 25 июня 2015


Качество видео: HDRip

Продолжительность: 01:40:13
Формат: AVI
Видео: XviD, 720x304 (2.35:1), 23.976 fps, 1560 kbps
Аудио: русский, дублированный (iTunes), AC3 5.1, 48 kHz, 384 kbps

Код:

General
Complete name                            : 0H0.2O15.D.HDRip.14OOMb.avi
Format                                   : AVI
Format/Info                              : Audio Video Interleave
File size                                : 1.37 GiB
Duration                                 : 1h 40mn
Overall bit rate                         : 1 952 Kbps
Writing application                      : VirtualDubMod 1.5.10.2 (build 2540/release)
Writing library                          : VirtualDubMod build 2540/release

Video
ID                                       : 0
Format                                   : MPEG-4 Visual
Format profile                           : Advanced Simple@L5
Format settings, BVOP                    : 2
Format settings, QPel                    : No
Format settings, GMC                     : No warppoints
Format settings, Matrix                  : Default (MPEG)
Codec ID                                 : XVID
Codec ID/Hint                            : XviD
Duration                                 : 1h 40mn
Bit rate                                 : 1 559 Kbps
Width                                    : 720 pixels
Height                                   : 304 pixels
Display aspect ratio                     : 2.35:1
Frame rate                               : 23.976 fps
Color space                              : YUV
Chroma subsampling                       : 4:2:0
Bit depth                                : 8 bits
Scan type                                : Progressive
Compression mode                         : Lossy
Bits/(Pixel*Frame)                       : 0.297
Stream size                              : 1.09 GiB (80%)
Writing library                          : XviD 1.2.1 (UTC 2008-12-04)

Audio
ID                                       : 1
Format                                   : AC-3
Format/Info                              : Audio Coding 3
Mode extension                           : CM (complete main)
Format settings, Endianness              : Big
Codec ID                                 : 2000
Duration                                 : 1h 40mn
Bit rate mode                            : Constant
Bit rate                                 : 384 Kbps
Channel count                            : 6 channels
Channel positions                        : Front: L C R, Side: L R, LFE
Sampling rate                            : 48.0 KHz
Bit depth                                : 16 bits
Compression mode                         : Lossy
Stream size                              : 275 MiB (20%)
Alignment                                : Split accross interleaves
Interleave, duration                     : 42 ms (1.00 video frame)
Interleave, preload duration             : 500 ms
picpicpicpicpic
Для увеличения картинки щелкните мышкой по превью

Этот торрент недоступен для скачивания без регистрации, однако доступен по публичной magnet-ссылке (источники с публичных трекеров). Перед использованием ссылки прочтите, пожалуйста Пользовательское соглашение, а также как можно дольше оставайтесь на раздаче! Для того, чтобы скачать сам торрент-файл (который видит больше источников), а также для того, чтобы поблагодарить релизера, вам необходимо зарегистрироваться. Если регистрироваться лень - вы можете также попробовать скачать релиз по нашим партнерским ссылкам ниже.

[underverse.su].t56487.torrent
Трекер: Зарегистрирован   [ 30.07.2015 11:31 ]  

Статус: T временная (by Паукан at 30.07.2015 13:44)
Поблагодарили: пока никто не поблагодарил...
Тип торрента: публичный - доступные источники с открытых трекеров: 
Размер: 1,37 GB (занимает 0,31 DVDR, для записи нужно 1 болванка DVDR/RW)
 
 
Похожие темы
Форум Тема Автор Торрент Отв. Посл. сооб.
Зарубежное кино [DVDRip, Low-Res HDRip, и т.д.] Оно / It Follows (Дэвид Роберт Митчелл) [2014 г., ужасы, детектив, WEB-DLRip] AVO [А.Матвеев] + Original Паукан
1 | 0

0 | 464

41

20.05.2015 16:41

Зарубежное кино [DVDRip, Low-Res HDRip, и т.д.] Оно / It Follows (Дэвид Роберт Митчелл) [2014 г., ужасы, триллер, детектив, HDRip] Dub (Line) makkol
289 | 13

0 | 676

53

16.07.2015 12:17

Зарубежное кино [HDDVDRip / BDRip / WEB-DL / HDTV 1080/720р] Оно / It Follows (Дэвид Роберт Митчелл) [2014 г., ужасы, триллер, детектив, BDRip 1080p] Dub + AVO + Original + Subs makkol
40 | 0

0 | 707

21

30.07.2015 11:45


Яндекс.Метрика powered by Sphinx


В Н И М А Н И Е
Сайт не распространяет и не хранит электронные версии произведений, а лишь бесплатно и без коммерческой выгоды (не требуя взамен платы,
SMS и т.д.) предоставляет доступ к создаваемому пользователями каталогу ссылок на торрент-файлы, которые содержат только списки хеш-сумм.
Убедительная просьба с жалобами обращаться напрямую к пользователю, разместившему торрент файл.

Вверх